img image001 image001 image001 image001 image001 image001 image001 image001 image001 image001 image001 image001 image001 image001 image001

Planets Sun Sun Sun
Статистика раздачи
Автор: Снежана | Размер: 4.51 ГБ | Добавлен: 24 июл 2013
Раздают: 8    Качают: 3
Скачать торрент
Скачать торрент
Описание торрента

СообщениеДобавлено: 24 июл 2013 

#77

Информация о фильме:
Название: Моя безумная семья
Год выхода: 2011
Жанр: комедия
Режиссер: Ренат Давлетьяров
В ролях: Иван Стебунов, Аглая Шиловская, Леонид Ярмольник, Мария Шукшина, Андрей Ургант, Лариса Удовиченко, Андрей Панин, Анна Ардова, Ольга Орлова, Вячеслав Манучаров и др.

О фильме: Родителей не выбирают! Но что делать, если после знакомства с твоими домочадцами подружки уходят навсегда? А тут появляется девушка мечты и настает время знакомить ее с семьей! Главный герой находит оригинальный выход: нанимает актеров из рекламного ролика, чтобы те сыграли его семью. Однако идеальный план выходит из-под контроля, ситуация накаляется и наш герой вынужден идти на крайние меры, чтобы не потерять любимую девушку и свою семью.



Выпущено: Россия
Продолжительность: 01:23:52
Озвучивание: Оригинал [лицензия]

Файл
Формат: MKV
Качество: BDRip 720p
Видео: MPEG-4 AVC, 6183 Кбит/с, 1280x582, 23.976 кадр/с
Аудио: Русский (DTS, 6 ch, 1510 Кбит/с)
Размер: 4.51 ГБ
Скачать: Сэмпл

Общее
Уникальный идентификатор : 197024791504785444302543052006559615656 (0x943998360A04FCB196A625A900048AA8)
Полное имя : D:ФильмыMoja.bezumnaja.semja.2011.x264.BDRip(720p).HDT.mkv
Формат : Matroska
Версия формата : Version 2
Размер файла : 4,51 Гбайт
Продолжительность : 1 ч. 23 м.
Общий поток : 7702 Кбит/сек
Название фильма : by HDT
Дата кодирования : UTC 2012-03-05 14:18:57
Программа кодирования : mkvmerge v5.0.1 ('Es ist Sommer') built on Oct 9 2011 11:55:43
Библиотека кодирования : libebml v1.2.2 + libmatroska v1.3.0
Attachment : Yes / Yes / Yes / Yes / Yes / Yes / Yes / Yes

Видео
Идентификатор : 1
Формат : AVC
Формат/Информация : Advanced Video Codec
Профиль формата : High@L4.1
Параметр CABAC формата : Да
Параметр ReFrames формата : 11 кадров
Идентификатор кодека : V_MPEG4/ISO/AVC
Продолжительность : 1 ч. 23 м.
Битрейт : 6183 Кбит/сек
Ширина : 1280 пикселей
Высота : 582 пикселя
Соотношение сторон : 2,2:1
Частота кадров : 23,976 кадра/сек
Цветовое пространство : YUV
Субдискретизация насыщенности : 4:2:0
Битовая глубина : 8 бит
Тип развёртки : Прогрессивная
Бит/(Пиксели*Кадры) : 0.346
Размер потока : 3,54 Гбайт (78%)
Заголовок : by HDT
Библиотека кодирования : x264 core 120 r2164 da19765
Настройки программы : cabac=1 / ref=11 / deblock=1:-3:-3 / analyse=0x3:0x113 / me=tesa / subme=11 / psy=1 / psy_rd=1.00:0.00 / mixed_ref=1 / me_range=24 / chroma_me=1 / trellis=2 / 8x8dct=1 / cqm=0 / deadzone=21,11 / fast_pskip=0 / chroma_qp_offset=-2 / threads=12 / sliced_threads=0 / nr=0 / decimate=0 / interlaced=0 / bluray_compat=0 / constrained_intra=0 / bframes=7 / b_pyramid=2 / b_adapt=2 / b_bias=0 / direct=3 / weightb=1 / open_gop=0 / weightp=2 / keyint=240 / keyint_min=24 / scenecut=40 / intra_refresh=0 / rc_lookahead=60 / rc=2pass / mbtree=0 / bitrate=6183 / ratetol=1.0 / qcomp=0.80 / qpmin=0 / qpmax=69 / qpstep=4 / cplxblur=20.0 / qblur=0.5 / vbv_maxrate=50000 / vbv_bufsize=62500 / nal_hrd=none / ip_ratio=1.40 / pb_ratio=1.30 / aq=1:0.90
Язык : Russian
Default : Да
Forced : Да
Коэффициенты матрицы : BT.709-5, BT.1361, IEC 61966-2-4 709, SMPTE RP177

Аудио
Идентификатор : 2
Формат : DTS
Формат/Информация : Digital Theater Systems
Идентификатор кодека : A_DTS
Продолжительность : 1 ч. 23 м.
Вид битрейта : Постоянный
Битрейт : 1510 Кбит/сек
Каналы : 6 каналов
Расположение каналов : Front: L C R, Side: L R, LFE
Частота : 48,0 КГц
Битовая глубина : 24 бит
Метод сжатия : С потерями
Размер потока : 906 Мбайт (20%)
Заголовок : by HDT
Язык : Russian
Default : Да
Forced : Да

Меню
00:00:00.000 : ru:Глава 1
00:05:18.318 : ru:Глава 2
00:09:01.124 : ru:Глава 3
00:13:13.960 : ru:Глава 4
00:17:09.820 : ru:Глава 5
00:21:29.705 : ru:Глава 6
00:27:05.541 : ru:Глава 7
00:30:59.858 : ru:Глава 8
00:38:27.472 : ru:Глава 9
00:47:05.031 : ru:Глава 10
00:53:16.026 : ru:Глава 11
01:00:02.349 : ru:Глава 12
01:03:57.542 : ru:Глава 13
01:07:22.956 : ru:Глава 14
01:12:47.947 : ru:Глава 15
01:16:51.607 : ru:Глава 16



Релиз-группа:



   Похожие торренты   Торрент   Размер 
В этой теме нет новых непрочитанных сообщений. Моя безумная семья (2011) DVD9 | Лицензия

1 | 2

5.64 ГБ

В этой теме нет новых непрочитанных сообщений. Моя безумная семья (2011) DVD5 | Лицензия

3 | 2

4.36 ГБ

В этой теме нет новых непрочитанных сообщений. Моя безумная семья (2011) BDRip от HELLYWOOD

46 | 3

1.45 ГБ

В этой теме нет новых непрочитанных сообщений. Моя безумная семья (2011) BDRip от HQCLUB

53 | 4

1.45 ГБ

В этой теме нет новых непрочитанных сообщений. Моя безумная семья (2011) BDRip 1080p от Freeisland

4 | 2

5.74 ГБ

В этой теме нет новых непрочитанных сообщений. Моя безумная семья (2012) BDRip 720p от HQ-ViDEO

16 | 2

4 ГБ

В этой теме нет новых непрочитанных сообщений. Моя безумная семья (2012) BDRip 720p от Leonardo and Scarabey

110 | 14

2.56 ГБ




Вы не можете начинать темы
Вы не можете отвечать на сообщения
Вы не можете редактировать свои сообщения
Вы не можете удалять свои сообщения
Вы не можете добавлять вложения

Перейти:  
Для Мосгорсуда, Роскомнадзора и рекламодателей: mosgorsud-torrent[собачка]yandex.ru
 Вход
ppkBB3cker v.2 © 2008-2014 @ PPK
[ Time : 0.039s | 15 Queries | GZIP : Off ]

Торрент трекер RUTOR.IN, Не можете зайти на rutor.org? Какой новый адрес рутор? Какое зеркало рутор? Не работает rutor.org и зеркала? Тогда наш торрент специально для вас. Rutor.in неофициальное зеркало rutor. В случае если у Вас заблокирован rutor или вдруг Вы не можете на него зайти, то Вы без труда сможете скачать бесплатно и без рекламы последние новинки кино, игр, сериалов и прочего у нас, на Rutor.in. Не нужно использовать прокси, чтобы зайти на рутор, достаточно воспользоваться нашим ресурсом. Все новые фильмы, игры, сериалы, книги и музыка за 2013 и 2014 годы через торрент бесплатно. Скачивайте фильмы в хорошем качестве, игры для пк, xbox, playstation без регистрации. У нас вы найдете новые Зарубежные сериалы и Русские сериалы 2013, 2014, 2015 годов. Оставайтесь с нами, качайте любимые фильмы, игры, сериалы, книги и музыку.
cron