img image001 image001 image001 image001 image001 image001 image001 image001 image001 image001 image001 image001 image001 image001 image001

Planets Sun Sun Sun
Статистика раздачи
Автор: Снежана | Размер: 4.37 ГБ | Добавлен: 24 июл 2013
Раздают: 776    Качают: 47
Скачать торрент
Скачать торрент
Описание торрента

СообщениеДобавлено: 24 июл 2013 

#77

Информация о фильме
Оригинальное название: Девчата
Год выхода: 1961
Жанр: мелодрама, комедия
Режиссер: Юрий Чулюкин
В ролях: Надежда Румянцева, Николай Рыбников, Люсьена Овчинникова, Станислав Хитров, Инна Макарова, Светлана Дружинина, Нина Меньшикова, Николай Погодин, Михаил Пуговкин, Анатолий Адоскин

О фильме: В сибирский поселок приехала юная повариха Тося Кислицына - наивная и эксцентричная девчонка. Она сует свой нос во все дела, каждому стремится помочь. Местный красавец Илья на спор заводит с Тосей роман, сопровождающийся массой комичных ситуаций...



Выпущено: СССР
Продолжительность: 01:36:02
Перевод: Оригинал

Файл
Кодек: x264
Качество: BDRip 1080p
Видео: 1920x816, 6070 Kbps, 23.976 fps
Звук: 48 kHz, AC3, 6c, 448 kbps
Субтитры: нет

03.07.2012г.
Релиз переделан.Торрент-файл перезалит

General
Unique ID : 242555258981986509638520479659179735359 (0xB67A7192AA95DE719E402A2A7F91793F)
Complete name : Девчата.1961.BDRip.1080p.Rus.mkv
Format : Matroska
Format version : Version 2
File size : 4.37 GiB
Duration : 1h 36mn
Overall bit rate : 6 520 Kbps
Movie name : Девчата.1961
Encoded date : UTC 2012-07-03 04:21:40
Writing application : mkvmerge v5.6.0 ('Kenya Kane') built on Jun 29 2012 15:01:44
Writing library : libebml v1.2.3 + libmatroska v1.3.0

Video
ID : 1
Format : AVC
Format/Info : Advanced Video Codec
Format profile : High@L4.1
Format settings, CABAC : Yes
Format settings, ReFrames : 5 frames
Codec ID : V_MPEG4/ISO/AVC
Duration : 1h 36mn
Bit rate : 6 070 Kbps
Width : 1 920 pixels
Height : 816 pixels
Display aspect ratio : 2.35:1
Frame rate : 23.976 fps
Color space : YUV
Chroma subsampling : 4:2:0
Bit depth : 8 bits
Scan type : Progressive
Bits/(Pixel*Frame) : 0.162
Stream size : 3.99 GiB (91%)
Title : Rip by Boriy
Writing library : x264 core 125 r2200 999b753
Encoding settings : cabac=1 / ref=5 / deblock=1:0:0 / analyse=0x3:0x113 / me=umh / subme=10 / psy=1 / psy_rd=1.00:0.10 / mixed_ref=1 / me_range=32 / chroma_me=1 / trellis=2 / 8x8dct=1 / cqm=0 / deadzone=21,11 / fast_pskip=0 / chroma_qp_offset=-3 / threads=12 / lookahead_threads=2 / sliced_threads=0 / nr=0 / decimate=0 / interlaced=0 / bluray_compat=0 / constrained_intra=0 / bframes=5 / b_pyramid=2 / b_adapt=2 / b_bias=0 / direct=3 / weightb=1 / open_gop=0 / weightp=2 / keyint=240 / keyint_min=23 / scenecut=40 / intra_refresh=0 / rc_lookahead=60 / rc=2pass / mbtree=1 / bitrate=6070 / ratetol=1.0 / qcomp=0.60 / qpmin=0 / qpmax=69 / qpstep=4 / cplxblur=20.0 / qblur=0.5 / ip_ratio=1.40 / aq=1:1.00
Language : English
Default : Yes
Forced : No

Audio
ID : 2
Format : AC-3
Format/Info : Audio Coding 3
Mode extension : CM (complete main)
Format settings, Endianness : Big
Codec ID : A_AC3
Duration : 1h 36mn
Bit rate mode : Constant
Bit rate : 448 Kbps
Channel(s) : 6 channels
Channel positions : Front: L C R, Side: L R, LFE
Sampling rate : 48.0 KHz
Bit depth : 16 bits
Compression mode : Lossy
Stream size : 308 MiB (7%)
Title : Оригинал
Language : Russian
Default : Yes
Forced : No

Menu
00:00:00.000 : :Chapter 1
00:12:34.753 : :Chapter 2
00:20:29.561 : :Chapter 3
00:26:55.822 : :Chapter 4
00:34:21.851 : :Chapter 5
00:39:25.905 : :Chapter 6
00:44:19.198 : :Chapter 7
00:50:27.858 : :Chapter 8
00:55:28.366 : :Chapter 9
01:07:08.649 : :Chapter 10
01:11:37.418 : :Chapter 11
01:17:02.868 : :Chapter 12
01:20:46.925 : :Chapter 13
01:24:41.117 : :Chapter 14
01:27:56.145 : :Chapter 15
01:33:03.286 : :Chapter 16



   Похожие торренты   Торрент   Размер 
В этой теме нет новых непрочитанных сообщений. Девчата (1961) BDRip 1080p

432 | 54

8.38 ГБ

В этой теме нет новых непрочитанных сообщений. Девчата (1961) Blu-Ray Remux 1080p

16 | 8

17.1 ГБ

В этой теме нет новых непрочитанных сообщений. Девчата (1961) BDRip-AVC от Youtracker

552 | 27

1.46 ГБ

В этой теме нет новых непрочитанных сообщений. Девчата (1961) BDRip от MediaClub | КПК

503 | 14

437.37 МБ

В этой теме нет новых непрочитанных сообщений. Девчата (1961) BDRip от HQCLUB

2652 | 90

1.46 ГБ

В этой теме нет новых непрочитанных сообщений. Девчата (1961) BDRip от Youtracker

160 | 11

744.62 МБ

В этой теме нет новых непрочитанных сообщений. Девчата (1961) BDRip-AVC | iPad

363 | 19

3.05 ГБ




Вы не можете начинать темы
Вы не можете отвечать на сообщения
Вы не можете редактировать свои сообщения
Вы не можете удалять свои сообщения
Вы не можете добавлять вложения

Перейти:  
Для Мосгорсуда, Роскомнадзора и рекламодателей: mosgorsud-torrent[собачка]yandex.ru
 Вход
ppkBB3cker v.2 © 2008-2014 @ PPK
[ Time : 0.090s | 14 Queries | GZIP : Off ]

Торрент трекер RUTOR.IN, Не можете зайти на rutor.org? Какой новый адрес рутор? Какое зеркало рутор? Не работает rutor.org и зеркала? Тогда наш торрент специально для вас. Rutor.in неофициальное зеркало rutor. В случае если у Вас заблокирован rutor или вдруг Вы не можете на него зайти, то Вы без труда сможете скачать бесплатно и без рекламы последние новинки кино, игр, сериалов и прочего у нас, на Rutor.in. Не нужно использовать прокси, чтобы зайти на рутор, достаточно воспользоваться нашим ресурсом. Все новые фильмы, игры, сериалы, книги и музыка за 2013 и 2014 годы через торрент бесплатно. Скачивайте фильмы в хорошем качестве, игры для пк, xbox, playstation без регистрации. У нас вы найдете новые Зарубежные сериалы и Русские сериалы 2013, 2014, 2015 годов. Оставайтесь с нами, качайте любимые фильмы, игры, сериалы, книги и музыку.