img image001 image001 image001 image001 image001 image001 image001 image001 image001 image001 image001 image001 image001 image001 image001

Planets Sun Sun Sun
Статистика раздачи
Автор: Снежана | Размер: 743.66 МБ | Добавлен: 24 июл 2013
Раздают: 61    Качают: 9
Скачать торрент
Скачать торрент
Описание торрента

СообщениеДобавлено: 24 июл 2013 

#77

Информация о фильме
Название: Карантин
Год выхода: 1983
Жанр: комедия
Режиссер: Илья Фрэз
В ролях: Айлика Кремер, Евгения Симонова, Юрий Дуванов, Светлана Немоляева, Юрий Богатырев, Татьяна Пельтцер, Павел Кадочников, Лидия Федосеева-Шукшина, Елена Соловей, Нина Архипова

О фильме:
Когда в детском саду объявили карантин, оказалось, что пятилетнюю Машу не у кого оставить, все заняты неотложными делами. Даже прабабушка и прадедушка тоже работают.

Поэтому Маша будет жить у родственников, друзей, коллег и случайных знакомых, а заодно, быть может, узнает много полезного, интересного и увлекательного.

Страна: СССР
Студия: Студия им. Горького
Продолжительность: 01:16:19
Перевод: Не требуется

Файл
Кодек: XviD /MP3
Качество: DVDRip
Видео: XviD, 720x544 (1.32:1), 25.000 fps, 1 163 Kbps, 0.119 bit/pixel
Звук: MP3, 48.0 KHz, 2 ch, 192 kbps

General
Complete name : Karantin_DVDRip.745_[Rutor.org].avi
Format : AVI
Format/Info : Audio Video Interleave
File size : 744 MiB
Duration : 1h 16mn
Overall bit rate : 1 362 Kbps
Writing application : VirtualDubMod 1.5.4.1 (build 2178/release)
Writing library : VirtualDubMod build 2178/release

Video
ID : 0
Format : MPEG-4 Visual
Format profile : Advanced Simple@L5
Format settings, BVOP : 1
Format settings, QPel : No
Format settings, GMC : No warppoints
Format settings, Matrix : Custom
Codec ID : XVID
Codec ID/Hint : XviD
Duration : 1h 16mn
Bit rate : 1 163 Kbps
Width : 720 pixels
Height : 544 pixels
Display aspect ratio : 4:3
Frame rate : 25.000 fps
Color space : YUV
Chroma subsampling : 4:2:0
Bit depth : 8 bits
Scan type : Progressive
Compression mode : Lossy
Bits/(Pixel*Frame) : 0.119
Stream size : 635 MiB (85%)
Writing library : XviD 1.2.1 (UTC 2008-12-04)

Audio
ID : 1
Format : MPEG Audio
Format version : Version 1
Format profile : Layer 3
Mode : Joint stereo
Mode extension : MS Stereo
Codec ID : 55
Codec ID/Hint : MP3
Duration : 1h 16mn
Bit rate mode : Constant
Bit rate : 192 Kbps
Channel(s) : 2 channels
Sampling rate : 48.0 KHz
Compression mode : Lossy
Stream size : 105 MiB (14%)
Alignment : Aligned on interleaves
Interleave, duration : 80 ms (2.00 video frames)
Interleave, preload duration : 504 ms
Writing library : LAME3.99r
Encoding settings : -m j -V 4 -q 2 -lowpass 18.6 -b 192
Language : Russian




   Похожие торренты   Торрент   Размер 
В этой теме нет новых непрочитанных сообщений. Карантин (1983) DVDRip от Odyzic и MyWorldFilm

93 | 6

1.21 ГБ

В этой теме нет новых непрочитанных сообщений. Карантин (1983) DVD5

26 | 2

4.14 ГБ

В этой теме нет новых непрочитанных сообщений. Карантин / Quarantine (2008) DVDRip-AVC

13 | 44

1.37 ГБ

В этой теме нет новых непрочитанных сообщений. Карантин 2: Терминал / Quarantine 2: Terminal (2011) DVDRip | Лицензия

8 | 4

700.65 МБ

В этой теме нет новых непрочитанных сообщений. Карантин 2: Терминал / Quarantine 2: Terminal (2011) DVDRip от Киномагия

9 | 5

1.37 ГБ

В этой теме нет новых непрочитанных сообщений. Карантин 2: Терминал / Quarantine 2: Terminal (2011) DVDRip от Scarabey | Лицензия

2 | 3

741.6 МБ

В этой теме нет новых непрочитанных сообщений. Карантин 2: Терминал / Quarantine 2: Terminal (2011) DVDRip от Scarabey | Лицензия

64 | 7

1.45 ГБ




Вы не можете начинать темы
Вы не можете отвечать на сообщения
Вы не можете редактировать свои сообщения
Вы не можете удалять свои сообщения
Вы не можете добавлять вложения

Перейти:  
Для Мосгорсуда, Роскомнадзора и рекламодателей: mosgorsud-torrent[собачка]yandex.ru
 Вход
ppkBB3cker v.2 © 2008-2014 @ PPK
[ Time : 0.052s | 14 Queries | GZIP : Off ]

Торрент трекер RUTOR.IN, Не можете зайти на rutor.org? Какой новый адрес рутор? Какое зеркало рутор? Не работает rutor.org и зеркала? Тогда наш торрент специально для вас. Rutor.in неофициальное зеркало rutor. В случае если у Вас заблокирован rutor или вдруг Вы не можете на него зайти, то Вы без труда сможете скачать бесплатно и без рекламы последние новинки кино, игр, сериалов и прочего у нас, на Rutor.in. Не нужно использовать прокси, чтобы зайти на рутор, достаточно воспользоваться нашим ресурсом. Все новые фильмы, игры, сериалы, книги и музыка за 2013 и 2014 годы через торрент бесплатно. Скачивайте фильмы в хорошем качестве, игры для пк, xbox, playstation без регистрации. У нас вы найдете новые Зарубежные сериалы и Русские сериалы 2013, 2014, 2015 годов. Оставайтесь с нами, качайте любимые фильмы, игры, сериалы, книги и музыку.