img image001 image001 image001 image001 image001 image001 image001 image001 image001 image001 image001 image001 image001 image001 image001

Planets Sun Sun Sun
Статистика раздачи
Автор: Снежана | Размер: 4.37 ГБ | Добавлен: 24 июл 2013
Раздают: 104    Качают: 17
Скачать торрент
Скачать торрент
Описание торрента

СообщениеДобавлено: 24 июл 2013 

#77

Информация о фильме:
Название: Сволочи
Год выхода: 2006
Жанр: боевик, драма, военный
Режиссер: Александр Атанесян
В главных ролях: Андрей Панин, Андрей Краско, Александр Головин, Сергей Рыченков, Ростислав Бершауэр, А. Бобров, Олег Буганов, Кирилл Емельянов, Митя Горевой, Владимир Кашпур

О фильме:
1943 год. Полковник Вишневецкий получает правительственное задание: подготовить диверсионную группу бойцов-смертников, которая должна блокировать действия отборных немецких соединений «Эдельвейс». Группа набирается из отчаянных мальчишек 14—15 лет, сирот, которых никто не будет искать.
Подростков отправляют в потайной горный лагерь, где они проходят специальную подготовку. Им предназначено уничтожить фашистскую военную базу и погибнуть, поскольку «носители особо секретной информации» не должны оставаться в живых.



Выпущено: Россия
Продолжительность: 01:37:14
Перевод: Оригинал

Файл
Кодек: x264
Качество: BDRip 1080p
Видео: 1920x1080, 5796 Kbps, 25.000 fps
Звук: 48 kHz, AC3, 6c, 640 kbps
Субтитры: нет

General
Unique ID : 254839952765964173553957989121582530372 (0xBFB863BD34FEE2679359626B5FC17F44)
Complete name : Сволочи.2006.BDRip.1080p.Rus.mkv
Format : Matroska
Format version : Version 2
File size : 4.37 GiB
Duration : 1h 37mn
Overall bit rate : 6 434 Kbps
Movie name : Сволочи.2006
Encoded date : UTC 2012-07-08 14:19:04
Writing application : mkvmerge v5.6.0 ('Kenya Kane') built on Jun 29 2012 15:01:44
Writing library : libebml v1.2.3 + libmatroska v1.3.0

Video
ID : 1
Format : AVC
Format/Info : Advanced Video Codec
Format profile : High@L4.1
Format settings, CABAC : Yes
Format settings, ReFrames : 4 frames
Codec ID : V_MPEG4/ISO/AVC
Duration : 1h 37mn
Bit rate : 5 796 Kbps
Width : 1 920 pixels
Height : 1 080 pixels
Display aspect ratio : 16:9
Frame rate : 25.000 fps
Color space : YUV
Chroma subsampling : 4:2:0
Bit depth : 8 bits
Scan type : Progressive
Bits/(Pixel*Frame) : 0.112
Stream size : 3.85 GiB (88%)
Title : Rip by Boriy
Writing library : x264 core 125 r2200 999b753
Encoding settings : cabac=1 / ref=4 / deblock=1:0:0 / analyse=0x3:0x113 / me=umh / subme=10 / psy=1 / psy_rd=1.00:0.10 / mixed_ref=1 / me_range=32 / chroma_me=1 / trellis=2 / 8x8dct=1 / cqm=0 / deadzone=21,11 / fast_pskip=0 / chroma_qp_offset=-3 / threads=12 / lookahead_threads=2 / sliced_threads=0 / nr=0 / decimate=0 / interlaced=0 / bluray_compat=0 / constrained_intra=0 / bframes=5 / b_pyramid=2 / b_adapt=2 / b_bias=0 / direct=3 / weightb=1 / open_gop=0 / weightp=2 / keyint=250 / keyint_min=25 / scenecut=40 / intra_refresh=0 / rc_lookahead=60 / rc=2pass / mbtree=1 / bitrate=5796 / ratetol=1.0 / qcomp=0.60 / qpmin=0 / qpmax=69 / qpstep=4 / cplxblur=20.0 / qblur=0.5 / ip_ratio=1.40 / aq=1:1.00
Language : English
Default : Yes
Forced : No

Audio
ID : 2
Format : AC-3
Format/Info : Audio Coding 3
Mode extension : CM (complete main)
Format settings, Endianness : Big
Codec ID : A_AC3
Duration : 1h 37mn
Bit rate mode : Constant
Bit rate : 640 Kbps
Channel(s) : 6 channels
Channel positions : Front: L C R, Side: L R, LFE
Sampling rate : 48.0 KHz
Bit depth : 16 bits
Compression mode : Lossy
Stream size : 445 MiB (10%)
Title : Оригинал
Language : Russian
Default : Yes
Forced : No

Menu
00:00:00.000 : :Chapter 1
00:05:44.280 : :Chapter 2
00:11:37.600 : :Chapter 3
00:18:07.160 : :Chapter 4
00:24:36.680 : :Chapter 5
00:31:24.360 : :Chapter 6
00:38:48.280 : :Chapter 7
00:46:12.200 : :Chapter 8
00:53:27.080 : :Chapter 9
01:01:09.080 : :Chapter 10
01:08:23.960 : :Chapter 11
01:15:47.880 : :Chapter 12
01:23:48.040 : :Chapter 13
01:29:59.480 : :Chapter 14
01:34:13.120 : :Chapter 15



   Похожие торренты   Торрент   Размер 
В этой теме нет новых непрочитанных сообщений. Сволочи (2006) BDRip 1080p | 60 fps

21 | 36

23.76 ГБ

В этой теме нет новых непрочитанных сообщений. Сволочи (2006) Blu-Ray Remux 1080p

6 | 4

17.41 ГБ

В этой теме нет новых непрочитанных сообщений. Сволочи (2006) HDRip-AVC

160 | 6

745.61 МБ

В этой теме нет новых непрочитанных сообщений. Сволочи (2006) HDRip

18 | 7

745.58 МБ

В этой теме нет новых непрочитанных сообщений. Сволочи (2006) DVD5

25 | 38

4.11 ГБ

В этой теме нет новых непрочитанных сообщений. Сволочи (2006) HDDVDRip

276 | 17

8.45 ГБ

В этой теме нет новых непрочитанных сообщений. Сволочи (2006) HDRip от HQ-ViDEO

591 | 29

1.46 ГБ




Вы не можете начинать темы
Вы не можете отвечать на сообщения
Вы не можете редактировать свои сообщения
Вы не можете удалять свои сообщения
Вы не можете добавлять вложения

Перейти:  
Для Мосгорсуда, Роскомнадзора и рекламодателей: mosgorsud-torrent[собачка]yandex.ru
 Вход
ppkBB3cker v.2 © 2008-2014 @ PPK
[ Time : 0.070s | 13 Queries | GZIP : Off ]
CGP output time : 0.018s | 5 Queries | GZIP : Off

Торрент трекер RUTOR.IN, Не можете зайти на rutor.org? Какой новый адрес рутор? Какое зеркало рутор? Не работает rutor.org и зеркала? Тогда наш торрент специально для вас. Rutor.in неофициальное зеркало rutor. В случае если у Вас заблокирован rutor или вдруг Вы не можете на него зайти, то Вы без труда сможете скачать бесплатно и без рекламы последние новинки кино, игр, сериалов и прочего у нас, на Rutor.in. Не нужно использовать прокси, чтобы зайти на рутор, достаточно воспользоваться нашим ресурсом. Все новые фильмы, игры, сериалы, книги и музыка за 2013 и 2014 годы через торрент бесплатно. Скачивайте фильмы в хорошем качестве, игры для пк, xbox, playstation без регистрации. У нас вы найдете новые Зарубежные сериалы и Русские сериалы 2013, 2014, 2015 годов. Оставайтесь с нами, качайте любимые фильмы, игры, сериалы, книги и музыку.