img image001 image001 image001 image001 image001 image001 image001 image001 image001 image001 image001 image001 image001 image001 image001

Planets Sun Sun Sun
Статистика раздачи
Автор: Снежана | Размер: 1.96 ГБ | Добавлен: 24 июл 2013
Раздают: 0    Качают: 2
Скачать торрент
Скачать торрент
Описание торрента

СообщениеДобавлено: 24 июл 2013 

#77

Информация о фильме
Название: Короткая игра
Год выхода: 1990
Жанр: криминальный фильм, социальная драма
Режиссер: Аким Салбиев
В ролях: Юрий Шлыков, Вера Глаголева, Аристарх Ливанов, Эдуард Марцевич, Кирилл Марцевич, Михаил Мамаев, Зинаида Шарко, Полина Мостовая, Владимир Мукусев, Михаил Глузский, Элина Исмайлова, Игорь Пушкарёв, Аким Салбиев, Ольга Шлыкова, Андрей Дементьев (II), Татьяна Митрухина

О фильме:
Поблекший от беспросветно серой жизни архитектор встречает друга детства и приходит в недоумение от его шикарного существования. Но ничего не просит и даже отказывается от помощи.

Страна: Россия
Продолжительность: 01:24:01

Файл
Кодек: MPEG-PS
Качество: DVB
Видео: MPEG Video, 704x576 (4 : 3), 25,000 кадров/сек, 3076 Кбит/сек
Звук: MPEG Audio, 48,0 КГц, 192 Кбит/сек, 2 канала


Общее
Полное имя : E:TorrentКОРОТКАЯ ИГРАКОРОТКАЯ ИГРА.mpg
Формат : MPEG-PS
Размер файла : 1,96 Гбайт
Продолжительность : 1 ч. 24 м.
Режим общего битрейта : Переменный
Общий поток : 3334 Кбит/сек

Видео
Идентификатор : 224 (0xE0)
Формат : MPEG Video
Версия формата : Version 2
Профиль формата : Main@Main
Параметр BVOP формата : Да
Параметр матрицы формата : Выборочная
Параметр GOP формата : M=1, N=13
Продолжительность : 1 ч. 24 м.
Вид битрейта : Переменный
Битрейт : 3076 Кбит/сек
Максимальный битрейт : 15,0 Мбит/сек
Ширина : 704 пикселя
Высота : 576 пикселей
Соотношение сторон : 4:3
Частота кадров : 25,000 кадров/сек
Стандарт вещания : PAL
Цветовое пространство : YUV
Субдискретизация насыщенности : 4:2:0
Битовая глубина : 8 бит
Тип развёртки : Чересстрочная
Порядок развёртки : Верхнее поле первое
Метод сжатия : С потерями
Бит/(Пиксели*Кадры) : 0.303
Размер потока : 1,81 Гбайт (92%)

Аудио
Идентификатор : 192 (0xC0)
Формат : MPEG Audio
Версия формата : Version 1
Профиль формата : Layer 2
Продолжительность : 1 ч. 24 м.
Вид битрейта : Постоянный
Битрейт : 192 Кбит/сек
Каналы : 2 канала
Частота : 48,0 КГц
Метод сжатия : С потерями
Размер потока : 115 Мбайт (6%)



   Похожие торренты   Торрент   Размер 
В этой теме нет новых непрочитанных сообщений. Чаки: Детская игра 2 / Child's Play 2 Chucky's Back (1990) DVDRip

10 | 44

685.11 МБ

В этой теме нет новых непрочитанных сообщений. Детские игры 2 / Детская игра 2 / Child's Play 2 (1990) HDTVRip-AVC 720p от HAZARD'A

2 | 2

2.64 ГБ

В этой теме нет новых непрочитанных сообщений. Виталий Вавикин - Эта короткая счастливая жизнь (2012) (2015) MP3

4 | 0

386.06 МБ

В этой теме нет новых непрочитанных сообщений. Короткая дорожка / Шорт трек / Short Track (2008) DVDRip

5 | 2

1.46 ГБ

В этой теме нет новых непрочитанных сообщений. Турнир на выживание / The Tournament (2009) BDRip от HQCLUB | Короткая версия

5 | 2

1.75 ГБ

В этой теме нет новых непрочитанных сообщений. Короткая переправа / Узкий пролив / Brève traversée / Brief crossing (2001) DVDRip

8 | 14

1.21 ГБ

В этой теме нет новых непрочитанных сообщений. XXII зимние Олимпийские игры. Фигурное катание. Женщины. Короткая программа [Перший] [19.02] (2014) DVB

73 | 18

1.52 ГБ




Вы не можете начинать темы
Вы не можете отвечать на сообщения
Вы не можете редактировать свои сообщения
Вы не можете удалять свои сообщения
Вы не можете добавлять вложения

Перейти:  
Для Мосгорсуда, Роскомнадзора и рекламодателей: mosgorsud-torrent[собачка]yandex.ru
 Вход
ppkBB3cker v.2 © 2008-2014 @ PPK
[ Time : 0.030s | 14 Queries | GZIP : Off ]

Торрент трекер RUTOR.IN, Не можете зайти на rutor.org? Какой новый адрес рутор? Какое зеркало рутор? Не работает rutor.org и зеркала? Тогда наш торрент специально для вас. Rutor.in неофициальное зеркало rutor. В случае если у Вас заблокирован rutor или вдруг Вы не можете на него зайти, то Вы без труда сможете скачать бесплатно и без рекламы последние новинки кино, игр, сериалов и прочего у нас, на Rutor.in. Не нужно использовать прокси, чтобы зайти на рутор, достаточно воспользоваться нашим ресурсом. Все новые фильмы, игры, сериалы, книги и музыка за 2013 и 2014 годы через торрент бесплатно. Скачивайте фильмы в хорошем качестве, игры для пк, xbox, playstation без регистрации. У нас вы найдете новые Зарубежные сериалы и Русские сериалы 2013, 2014, 2015 годов. Оставайтесь с нами, качайте любимые фильмы, игры, сериалы, книги и музыку.