img image001 image001 image001 image001 image001 image001 image001 image001 image001 image001 image001 image001 image001 image001 image001

Planets Sun Sun Sun
Статистика раздачи
Автор: Снежана | Размер: 699.78 МБ | Добавлен: 24 июл 2013
Раздают: 2    Качают: 3
Скачать торрент
Скачать торрент
Описание торрента

СообщениеДобавлено: 24 июл 2013 

Настоятель 2
(2011)
DVDRip-AVC [Hi10P] от FREEISLAND




Жанр: Драма, криминал

Режиссер: Игорь Москвитин

В ролях:
Егор Пазенко, Андрей Чубченко, Анна Табанина, Дмитрий Лебедев (III), Павел Миронов, Кирилл Датешидзе, Наталья Ткаченко, Вадим Парфёнов, Геннадий Меньшиков, Фёдор Копосов, Василий Шевцов, Даниил Кокин, Алина Белякова, Дмитрий Конев

Описание:
С момента последних событий прошло время. Отец Андрей все так же читает проповеди, иногда заходит в бар, чтобы пообщаться с прихожанами в неформальной обстановке. В городе после того, как был арестован и посажен Агафонов – тишь да благодать. Нет, ну, случаются какие-то происшествия, но начальник местной милиции Муров стоит на страже закона. Неожиданно в город приезжает некто Иван Лебедев. Он ищет отца Андрея...



Страна: Россия
Выпущено: Триикс Медиа
Продолжительность: 1 ч. 29 м. 53 с.
Перевод: Оригинал
Оригинальная разбивка на главы: сохранена

Внимание!

Рип в High 10 Profile, в настоящее время не поддерживается большинством аппаратных проигрывателей.
Для корректного воспроизведения может потребоваться обновление ПО.
Владельцам несовместимого железа просьба не беспокоить, на трекере есть альтернативные релизы.

Качество: DVDRip-AVC Hi10P (SSIM: 0.9859960)
Исходник: DVD5
Контейнер: MKV
Видео кодек: x264 High10@L4.0
Аудио кодек: AC3
Видео: AVC at 895 Кбит/сек, 720 x 560 @ 1024 x 560 (1.829) at 25.000 fps
Аудио: AC-3 at 192 Кбит/сек, 2 канала, 48,0 КГц
Субтитры: нет


Общее
Уникальный идентификатор : 171254860809795008383795654468826777366 (0x80D67C8859C1BA65A5CFF973A0FB4716)
Полное имя : Настоятель 2 (2011) DVDRip-Hi10P by_F.HD.mkv
Формат : Matroska
Версия формата : Version 2
Размер файла : 700 Мбайт
Продолжительность : 1 ч. 29 м.
Общий поток : 1088 Кбит/сек
Название фильма : релиз от FREEISLAND.ORG
Дата кодирования : UTC 2012-07-19 20:54:22
Программа кодирования : mkvmerge v5.7.0 ('The Whirlwind') built on Jul 8 2012 20:08:51
Библиотека кодирования : libebml v1.2.3 + libmatroska v1.3.0

Видео
Идентификатор : 1
Формат : AVC
Формат/Информация : Advanced Video Codec
Профиль формата : High 10@L4.0
Параметр CABAC формата : Да
Параметр ReFrames формата : 16 кадров
Идентификатор кодека : V_MPEG4/ISO/AVC
Продолжительность : 1 ч. 29 м.
Битрейт : 895 Кбит/сек
Ширина : 720 пикселей
Высота : 560 пикселей
Соотношение сторон : 16:9
Частота кадров : 25,000 кадров/сек
Цветовое пространство : YUV
Субдискретизация насыщенности : 4:2:0
Битовая глубина : 10 бит
Тип развёртки : Прогрессивная
Бит/(Пиксели*Кадры) : 0.089
Размер потока : 562 Мбайт (80%)
Библиотека кодирования : x264 core 125 r2200+666+30 20c70fc tMod [10-bit@all X86_64]
Настройки программы : cabac=1 / ref=16 / deblock=1:-1:0 / analyse=0x3:0x133 / me=umh / subme=11 / psy=1 / fade_compensate=0.00 / psy_rd=1.00:0.40 / mixed_ref=1 / me_range=64 / chroma_me=1 / trellis=2 / 8x8dct=1 / cqm=0 / deadzone=21,11 / fast_pskip=0 / chroma_qp_offset=-4 / threads=12 / lookahead_threads=2 / sliced_threads=0 / nr=0 / decimate=1 / interlaced=0 / bluray_compat=0 / constrained_intra=0 / fgo=0 / bframes=8 / b_pyramid=2 / b_adapt=2 / b_bias=0 / direct=3 / weightb=1 / open_gop=0 / weightp=2 / keyint=250 / keyint_min=25 / scenecut=40 / intra_refresh=0 / rc_lookahead=0 / rc=2pass / mbtree=0 / bitrate=895 / ratetol=1.0 / qcomp=1.00 / qpmin=0 / qpmax=48 / qpstep=4 / cplxblur=20.0 / qblur=0.5 / vbv_maxrate=50000 / vbv_bufsize=62500 / nal_hrd=none / ip_ratio=1.40 / pb_ratio=1.30 / aq=4:1.00
Default : Да
Forced : Нет
Основные цвета : BT.601-6 525, BT.1358 525, BT.1700 NTSC, SMPTE 170M
Характеристики трансфера : BT.601-6 525, BT.601-6 625, BT.1358 525, BT.1358 625, BT.1700 NTSC, SMPTE 170M
Коэффициенты матрицы : BT.601-6 525, BT.1358 525, BT.1700 NTSC, SMPTE 170M

Аудио
Идентификатор : 2
Формат : AC-3
Формат/Информация : Audio Coding 3
Расширение режима : CM (complete main)
Идентификатор кодека : A_AC3
Продолжительность : 1 ч. 29 м.
Вид битрейта : Постоянный
Битрейт : 192 Кбит/сек
Каналы : 2 канала
Расположение каналов : Front: L R
Частота : 48,0 КГц
Битовая глубина : 16 бит
Метод сжатия : С потерями
Размер потока : 123 Мбайт (18%)
Язык : Russian
Default : Да
Forced : Нет

Меню
00:00:00.000 : :01
00:07:46.120 : :02
00:15:30.520 : :03
00:22:19.160 : :04
00:30:54.360 : :05
00:38:27.480 : :06
00:45:48.480 : :07
00:53:09.240 : :08
01:00:32.760 : :09
01:08:14.520 : :10
01:15:28.080 : :11
01:22:43.400 : :12













Релиз от:

Если у вас возникают вопросы типа:
-почему у меня есть звук и отсутствует изображение?
-почему у меня рассыпается картинка?
-почему у меня картинка фонит синевой или зеленью?
-зачем и кому всё это нужно?
и тому подобные, читаем FAQ.
ссылка на FAQ запрещена правилами.

По этому, гуглим на тему спойлера (Что такое 10-ти битное видео (High 10 Profile - Hi10P), и как его смотреть?).



   Похожие торренты   Торрент   Размер 
В этой теме нет новых непрочитанных сообщений. Настоятель (2010) DVDRip-AVC от FREEISLAND

6 | 2

699.67 МБ

В этой теме нет новых непрочитанных сообщений. Нокаут / Haywire (2011) DVDRip-AVC Hi10P от FREEISLAND

1 | 2

697.92 МБ

В этой теме нет новых непрочитанных сообщений. Настоятель 2 (2011) DVDRip

96 | 9

1.37 ГБ

В этой теме нет новых непрочитанных сообщений. Мамы (2012) DVDRip-AVC [Hi10P] от FREEISLAND

10 | 3

698.71 МБ

В этой теме нет новых непрочитанных сообщений. Няньки (2012) DVDRip-AVC [Hi10P] от FREEISLAND

15 | 3

698.59 МБ

В этой теме нет новых непрочитанных сообщений. Шпион (2012) DVDRip-AVC [Hi10P] от FREEISLAND

6 | 2

699.47 МБ

В этой теме нет новых непрочитанных сообщений. Zолушка (2012) DVDRip-AVC [Hi10P] от FREEISLAND

0 | 4

697.94 МБ




Вы не можете начинать темы
Вы не можете отвечать на сообщения
Вы не можете редактировать свои сообщения
Вы не можете удалять свои сообщения
Вы не можете добавлять вложения

Перейти:  
Для Мосгорсуда, Роскомнадзора и рекламодателей: mosgorsud-torrent[собачка]yandex.ru
 Вход
ppkBB3cker v.2 © 2008-2014 @ PPK
[ Time : 0.022s | 15 Queries | GZIP : Off ]

Торрент трекер RUTOR.IN, Не можете зайти на rutor.org? Какой новый адрес рутор? Какое зеркало рутор? Не работает rutor.org и зеркала? Тогда наш торрент специально для вас. Rutor.in неофициальное зеркало rutor. В случае если у Вас заблокирован rutor или вдруг Вы не можете на него зайти, то Вы без труда сможете скачать бесплатно и без рекламы последние новинки кино, игр, сериалов и прочего у нас, на Rutor.in. Не нужно использовать прокси, чтобы зайти на рутор, достаточно воспользоваться нашим ресурсом. Все новые фильмы, игры, сериалы, книги и музыка за 2013 и 2014 годы через торрент бесплатно. Скачивайте фильмы в хорошем качестве, игры для пк, xbox, playstation без регистрации. У нас вы найдете новые Зарубежные сериалы и Русские сериалы 2013, 2014, 2015 годов. Оставайтесь с нами, качайте любимые фильмы, игры, сериалы, книги и музыку.