img image001 image001 image001 image001 image001 image001 image001 image001 image001 image001 image001 image001 image001 image001 image001

Planets Sun Sun Sun
Статистика раздачи
Автор: Снежана | Размер: 1.12 ГБ | Добавлен: 24 июл 2013
Раздают: 11    Качают: 4
Скачать торрент
Скачать торрент
Описание торрента

СообщениеДобавлено: 24 июл 2013 

Пропавший без вести (2010) SATRip


Русское название: Пропавший без вести
Производство: Россия, Proline-film (СПб), Киностудия им. М. Горького
Год выпуска: 2010
Жанр: Драма
Режиссер: Анна Фенченко
Актеры: Андрей Филиппак, Расим Джафаров, Полина Каманина, Людмила Героева, Юрис Лауциньш, Полина Филоненко, Андрес Пуустусмаа, Сергей Мардарь, Даниэла Стоянович

Описание фильма:
Главный герой — программист. Его вполне устраивает самоизоляция в большом мире, позволяющая ему вести размеренную и комфортную жизнь. Но однажды эта иллюзорная независимость дает сбой. Случайное обстоятельство вынуждает его потерять все: дом, работу, паспорт, даже имя. Он оказывается участником странных происшествий, лишаясь возможности распоряжаться своей судьбой и превращаясь в бегущего человека, целиком зависящего от других. Попавший в незнакомую среду, переживший разные перипетии, он оказывается словно во сне, где все реальное воспринимается им как не способное разбудить его сознание. Ему просто необходимо очнуться, прервать этот бессмысленный бег и задуматься над главным вопросом...

Продолжительность: 01:34:59



Качество: SATRip
Формат: AVI
Видео: DivX 5, 720x384 (1.875), 25.000 fps, 1 548 Kbps (0.224 bit/pixel)
Звук: MP3, 44.1 KHz, 2 ch, 128 Kbps, CBR
Общее
Полное имя : C:JustlanПропавший без вестиPropavshij bez vesti.avi
Формат : AVI
Формат/Информация : Audio Video Interleave
Размер файла : 1,12 Гбайт
Продолжительность : 1 ч. 34 м.
Общий поток : 1686 Кбит/сек
Библиотека кодирования : VirtualDub build 18160/release

Видео
Идентификатор : 0
Формат : MPEG-4 Visual
Параметр BVOP формата : 1
Параметр QPel формата : Нет
Параметр GMC формата : Без точки перехода
Параметр матрицы формата : Default (H.263)
Режим смешивания : Сжатый битовый поток
Идентификатор кодека : DX50
Идентификатор кодека/Подсказка : DivX 5
Продолжительность : 1 ч. 34 м.
Битрейт : 1548 Кбит/сек
Ширина : 720 пикселей
Высота : 384 пикселя
Соотношение сторон : 1,875
Частота кадров : 25,000 кадров/сек
Цветовое пространство : YUV
Субдискретизация насыщенности : 4:2:0
Битовая глубина : 8 бит
Тип развёртки : Прогрессивная
Метод сжатия : С потерями
Бит/(Пиксели*Кадры) : 0.224
Размер потока : 1,03 Гбайт (92%)
Библиотека кодирования : DivX 3013

Аудио
Идентификатор : 1
Формат : MPEG Audio
Версия формата : Version 1
Профиль формата : Layer 3
Идентификатор кодека : 55
Идентификатор кодека/Подсказка : MP3
Продолжительность : 1 ч. 34 м.
Вид битрейта : Постоянный
Битрейт : 128 Кбит/сек
Каналы : 2 канала
Частота : 44,1 КГц
Метод сжатия : С потерями
Размер потока : 87,0 Мбайт (8%)
Выравнивание : Разделение по промежуткам
Продолжительность промежутка : 40 мс. (1,00 видеокадр)
Время предзагрузки промежутка : 500 мс.








   Похожие торренты   Торрент   Размер 
В этой теме нет новых непрочитанных сообщений. Пропавший без вести [01-04 из 04] (2013) SATRip от РиперАМ

145 | 12

2 ГБ

В этой теме нет новых непрочитанных сообщений. Без вести пропавший (1956) DVDRip

46 | 17

1.37 ГБ

В этой теме нет новых непрочитанных сообщений. Без вести пропавший (1956) DVDRip-AVC

55 | 13

1.41 ГБ

В этой теме нет новых непрочитанных сообщений. Без вести пропавший (1956) DVDRip от New-Team

28 | 0

745.03 МБ

В этой теме нет новых непрочитанных сообщений. Без вести пропавший (1956) DVDRip-AVC от New-Team

12 | 0

1.09 ГБ

В этой теме нет новых непрочитанных сообщений. Пропавший без вести [01 из 04] (2013) HDTVRip-AVC от Files-x

60 | 3

2.69 ГБ

В этой теме нет новых непрочитанных сообщений. Пропавший без вести / The Missing [s01] (2014) HDTVRip | L2

242 | 107

4.55 ГБ




Вы не можете начинать темы
Вы не можете отвечать на сообщения
Вы не можете редактировать свои сообщения
Вы не можете удалять свои сообщения
Вы не можете добавлять вложения

Перейти:  
Для Мосгорсуда, Роскомнадзора и рекламодателей: mosgorsud-torrent[собачка]yandex.ru
 Вход
ppkBB3cker v.2 © 2008-2014 @ PPK
[ Time : 0.135s | 14 Queries | GZIP : Off ]

Торрент трекер RUTOR.IN, Не можете зайти на rutor.org? Какой новый адрес рутор? Какое зеркало рутор? Не работает rutor.org и зеркала? Тогда наш торрент специально для вас. Rutor.in неофициальное зеркало rutor. В случае если у Вас заблокирован rutor или вдруг Вы не можете на него зайти, то Вы без труда сможете скачать бесплатно и без рекламы последние новинки кино, игр, сериалов и прочего у нас, на Rutor.in. Не нужно использовать прокси, чтобы зайти на рутор, достаточно воспользоваться нашим ресурсом. Все новые фильмы, игры, сериалы, книги и музыка за 2013 и 2014 годы через торрент бесплатно. Скачивайте фильмы в хорошем качестве, игры для пк, xbox, playstation без регистрации. У нас вы найдете новые Зарубежные сериалы и Русские сериалы 2013, 2014, 2015 годов. Оставайтесь с нами, качайте любимые фильмы, игры, сериалы, книги и музыку.