img image001 image001 image001 image001 image001 image001 image001 image001 image001 image001 image001 image001 image001 image001 image001 image001

Planets Sun Sun Sun
Статистика раздачи
Автор: Снежана | Размер: 1.12 ГБ | Добавлен: 24 июл 2013
Раздают: 11    Качают: 4
Скачать торрент
Скачать торрент
Описание торрента

СообщениеДобавлено: 24 июл 2013 

Пропавший без вести (2010) SATRip


Русское название: Пропавший без вести
Производство: Россия, Proline-film (СПб), Киностудия им. М. Горького
Год выпуска: 2010
Жанр: Драма
Режиссер: Анна Фенченко
Актеры: Андрей Филиппак, Расим Джафаров, Полина Каманина, Людмила Героева, Юрис Лауциньш, Полина Филоненко, Андрес Пуустусмаа, Сергей Мардарь, Даниэла Стоянович

Описание фильма:
Главный герой — программист. Его вполне устраивает самоизоляция в большом мире, позволяющая ему вести размеренную и комфортную жизнь. Но однажды эта иллюзорная независимость дает сбой. Случайное обстоятельство вынуждает его потерять все: дом, работу, паспорт, даже имя. Он оказывается участником странных происшествий, лишаясь возможности распоряжаться своей судьбой и превращаясь в бегущего человека, целиком зависящего от других. Попавший в незнакомую среду, переживший разные перипетии, он оказывается словно во сне, где все реальное воспринимается им как не способное разбудить его сознание. Ему просто необходимо очнуться, прервать этот бессмысленный бег и задуматься над главным вопросом...

Продолжительность: 01:34:59



Качество: SATRip
Формат: AVI
Видео: DivX 5, 720x384 (1.875), 25.000 fps, 1 548 Kbps (0.224 bit/pixel)
Звук: MP3, 44.1 KHz, 2 ch, 128 Kbps, CBR
Общее
Полное имя : C:JustlanПропавший без вестиPropavshij bez vesti.avi
Формат : AVI
Формат/Информация : Audio Video Interleave
Размер файла : 1,12 Гбайт
Продолжительность : 1 ч. 34 м.
Общий поток : 1686 Кбит/сек
Библиотека кодирования : VirtualDub build 18160/release

Видео
Идентификатор : 0
Формат : MPEG-4 Visual
Параметр BVOP формата : 1
Параметр QPel формата : Нет
Параметр GMC формата : Без точки перехода
Параметр матрицы формата : Default (H.263)
Режим смешивания : Сжатый битовый поток
Идентификатор кодека : DX50
Идентификатор кодека/Подсказка : DivX 5
Продолжительность : 1 ч. 34 м.
Битрейт : 1548 Кбит/сек
Ширина : 720 пикселей
Высота : 384 пикселя
Соотношение сторон : 1,875
Частота кадров : 25,000 кадров/сек
Цветовое пространство : YUV
Субдискретизация насыщенности : 4:2:0
Битовая глубина : 8 бит
Тип развёртки : Прогрессивная
Метод сжатия : С потерями
Бит/(Пиксели*Кадры) : 0.224
Размер потока : 1,03 Гбайт (92%)
Библиотека кодирования : DivX 3013

Аудио
Идентификатор : 1
Формат : MPEG Audio
Версия формата : Version 1
Профиль формата : Layer 3
Идентификатор кодека : 55
Идентификатор кодека/Подсказка : MP3
Продолжительность : 1 ч. 34 м.
Вид битрейта : Постоянный
Битрейт : 128 Кбит/сек
Каналы : 2 канала
Частота : 44,1 КГц
Метод сжатия : С потерями
Размер потока : 87,0 Мбайт (8%)
Выравнивание : Разделение по промежуткам
Продолжительность промежутка : 40 мс. (1,00 видеокадр)
Время предзагрузки промежутка : 500 мс.








   Похожие торренты   Торрент   Размер 
В этой теме нет новых непрочитанных сообщений. Пропавший без вести (2010) WEBRip-AVC

3 | 1

746.56 МБ

В этой теме нет новых непрочитанных сообщений. Пропавший без вести (2010) WEB-DLRip от MegaPeer

33 | 1

1.46 ГБ

В этой теме нет новых непрочитанных сообщений. Пропавший без вести [01-04 из 04] (2013) SATRip от РиперАМ

145 | 12

2 ГБ

В этой теме нет новых непрочитанных сообщений. Пропавший без вести (2010) WEBRip (1080p) от MediaClub

9 | 1

3.7 ГБ

В этой теме нет новых непрочитанных сообщений. Без вести пропавший (1956) DVDRip

45 | 17

1.37 ГБ

В этой теме нет новых непрочитанных сообщений. Без вести пропавший (1956) DVDRip-AVC

49 | 11

1.41 ГБ

В этой теме нет новых непрочитанных сообщений. Пропавший без вести / The Missing [s01] (2014) HDTVRip | L2

242 | 107

4.55 ГБ




Вы не можете начинать темы
Вы не можете отвечать на сообщения
Вы не можете редактировать свои сообщения
Вы не можете удалять свои сообщения
Вы не можете добавлять вложения

Перейти:  
 Вход
ppkBB3cker v.2 © 2008-2014 @ PPK
[ Time : 0.233s | 15 Queries | GZIP : Off ]

cron