img image001 image001 image001 image001 image001 image001 image001 image001 image001 image001 image001 image001 image001 image001 image001

Planets Sun Sun Sun
Статистика раздачи
Автор: Снежана | Размер: 1.46 ГБ | Добавлен: 24 июл 2013, 05:42
Раздают: 151    Качают: 20
Скачать торрент
Скачать торрент
Описание торрента

СообщениеДобавлено: 24 июл 2013, 05:42 

#77

Информация о фильме
Название: Дон Кихот
Год выхода: 1957
Жанр: драма
Режиссер: Григорий Козинцев
В ролях: Николай Черкасов, Юрий Толубеев, Серафима Бирман, Людмила Касьянова, Светлана Григорьева, Владимир Максимов, Виктор Колпаков, Тамилла Агамирова, Георгий Вицин, Бруно Фрейндлих

О фильме:
Бессмертная история о романтике, чудаке и мечтателе храбром рыцаре Дон Кихоте Ламанческом, и о его спутнике, верном оруженосце Санчо Пансе. Алонсо Кехано, Дон Кихот Ламанческий, был настолько влюблен в рыцарские романы, что решил сам сделаться рыцарем и отправиться в поход, хотя времена рыцарства давно миновали…

Страна: СССР
Продолжительность: 01:41:32
Перевод: Не требуется

Файл
Кодек: XviD / AC3
Качество: DVDRip
Видео: DivX, 720x304 (2.35:1), 25 fps, ~1597 kbps, 0.292 bit/pixel
Звук: AC3, 48 kHz, 6 ch, 448 kbps

General
Complete name : /media/Don.Kihot_DVDRip.1400_[Rutor.org].avi
Format : AVI
Format/Info : Audio Video Interleave
File size : 1.46 GiB
Duration : 1h 41mn
Overall bit rate : 2 052 Kbps
Writing application : VirtualDubMod 1.5.4.1 (build 2178/release)
Writing library : VirtualDubMod build 2178/release

Video
ID : 0
Format : MPEG-4 Visual
Format profile : Advanced Simple@L5
Format settings, BVOP : 1
Format settings, QPel : No
Format settings, GMC : No warppoints
Format settings, Matrix : Custom
Codec ID : XVID
Codec ID/Hint : XviD
Duration : 1h 41mn
Bit rate : 1 597 Kbps
Width : 720 pixels
Height : 304 pixels
Display aspect ratio : 2.35:1
Frame rate : 25.000 fps
Color space : YUV
Chroma subsampling : 4:2:0
Bit depth : 8 bits
Scan type : Progressive
Compression mode : Lossy
Bits/(Pixel*Frame) : 0.292
Stream size : 1.13 GiB (78%)
Writing library : XviD 65

Audio
ID : 1
Format : AC-3
Format/Info : Audio Coding 3
Mode extension : CM (complete main)
Codec ID : 2000
Duration : 1h 41mn
Bit rate mode : Constant
Bit rate : 448 Kbps
Channel(s) : 6 channels
Channel positions : Front: L C R, Side: L R, LFE
Sampling rate : 48.0 KHz
Bit depth : 16 bits
Compression mode : Lossy
Stream size : 325 MiB (22%)
Alignment : Split accross interleaves
Interleave, duration : 96 ms (2.40 video frames)
Interleave, preload duration : 96 ms
Language : Russian




   Похожие торренты   Торрент   Размер 
В этой теме нет новых непрочитанных сообщений. Дон Кихот (1957) DVDRip

2 | 3

744.46 МБ

В этой теме нет новых непрочитанных сообщений. Дон Кихот / Donkey Xote (2007) DVDRip

2 | 7

1.37 ГБ

В этой теме нет новых непрочитанных сообщений. Дон Кихот возвращается (1996) DVDRip-AVC от Youtracker

4 | 8

1.46 ГБ

В этой теме нет новых непрочитанных сообщений. Дон Кихот возвращается (1996) DVDRip от Youtracker

6 | 3

1.46 ГБ

В этой теме нет новых непрочитанных сообщений. Дон Кихот возвращается (1996) DVDRip от Youtracker

1 | 2

745.07 МБ

В этой теме нет новых непрочитанных сообщений. Дон Кихот в волшебной стране / Las aventuras de Don Quijote (2009) DVDRip от RAMpage CHG

2 | 15

701.02 МБ

В этой теме нет новых непрочитанных сообщений. Орленок (1957) DVDRip

202 | 12

1.08 ГБ




Вы не можете начинать темы
Вы не можете отвечать на сообщения
Вы не можете редактировать свои сообщения
Вы не можете удалять свои сообщения
Вы не можете добавлять вложения

Перейти:  
Для Мосгорсуда, Роскомнадзора и рекламодателей: mosgorsud-torrent[собачка]yandex.ru
Настройки
ppkBB3cker v.2 © 2008-2014 @ PPK
[ Time : 0.013s | 16 Queries | GZIP : Off ]
CGP [Extreme] output time : 0.00018s | 0 Queries | GZIP : Off

Торрент трекер RUTOR.IN, Не можете зайти на rutor.org? Какой новый адрес рутор? Какое зеркало рутор? Не работает rutor.org и зеркала? Тогда наш торрент специально для вас. Rutor.in неофициальное зеркало rutor. В случае если у Вас заблокирован rutor или вдруг Вы не можете на него зайти, то Вы без труда сможете скачать бесплатно и без рекламы последние новинки кино, игр, сериалов и прочего у нас, на Rutor.in. Не нужно использовать прокси, чтобы зайти на рутор, достаточно воспользоваться нашим ресурсом. Все новые фильмы, игры, сериалы, книги и музыка за 2013 и 2014 годы через торрент бесплатно. Скачивайте фильмы в хорошем качестве, игры для пк, xbox, playstation без регистрации. У нас вы найдете новые Зарубежные сериалы и Русские сериалы 2013, 2014, 2015 годов. Оставайтесь с нами, качайте любимые фильмы, игры, сериалы, книги и музыку.