img image001 image001 image001 image001 image001 image001 image001 image001 image001 image001 image001 image001 image001 image001 image001

Planets Sun Sun Sun
Статистика раздачи
Автор: Снежана | Размер: 2.67 ГБ | Добавлен: 24 июл 2013
Раздают: 1    Качают: 3
Скачать торрент
Скачать торрент
Описание торрента

СообщениеДобавлено: 24 июл 2013 



Повторная свадьба (1976) TVRip

Информация о фильме
Название: Повторная свадьба
Год выпуска: 1976
Жанр: Мелодрама
Режиссер: Георгий Натансон
В ролях: Андрей Миронов, Марина Дюжева, Игорь Костолевский, Ирина Калиновская, Зинаида Дехтярева, Михаил Кузнецов, Наталья Егорова, Леонид Куравлев.

Описание:

Молодой мужчина — интеллигентный, спокойный, рассудительный и с большим чувством юмора, проживший более пяти лет в счастливом браке, — встречает на улице молодую девушку и уходит из семьи. Однако очень скоро возвращается...

«Я взялся снимать эту ленту по сценарию Евгения Габриловича, автора „Коммуниста“ и фильма „Твой современник“, — это как бы продолжение темы, где главный герой коммунист-карьерист. Понятно, что с позиции сегодняшнего дня вам это покажется анахронизмом, но тогда, в конце шестидесятых, в эпоху махровых брежневских времен, попытаться снять такое кино — значит обречь себя на конфронтацию с властями. Тем не менее, акт о приеме картины подписали, даже добрые слова сказали, мол, вы сняли очень хороший, смелый фильм. А спустя несколько дней, разгневанный председатель Госкино Филипп Тимофеевич Ермаш в ярости кричал: „Вы что, с ума сошли, такое показывать на экране!“. „Мосфильм“ с подачи Госкино заставил нас переделывать картину, где играли, между прочим Леонид Куравлев и Андрей Миронов, только что снявшийся в „Бриллиантовой руке“. Габрилович переписывал целые сцены, я переснимал заново... После „Повторной свадьбы“ мне пять лет не давали снимать». — Георгий Натансон.



Производство: СССР, Мосфильм
Продолжительность: 01:25:33
Перевод: Не требуется

Файл
Качество: DVB
Формат: MPEG
Видео кодек: MPEG2
Аудио кодек: MPEG Audio (Version 1) (Layer 2)
Видео: MPEG 2, 720 x 576, 25 fps, 4099 kbps
Аудио: MPEG Audio (Version 1) (Layer 2), 2 Ch, 48.000, 192 kbps

Скриншоты:



General
Complete name : D:Повторная свадьба . (1976)_DVB by SLuMeP .mpg
Format : MPEG-PS
File size : 2.67 GiB
Duration : 1h 25mn
Overall bit rate : 4 469 Kbps
Writing library : (c) 1998-2008 Womble Multimedia, Inc. / MPEG Video Wizard (08/2008) / Aug 25 2008

Video
ID : 224 (0xE0)
Format : MPEG Video
Format version : Version 2
Format profile : Main@Main
Format settings, BVOP : Yes
Format settings, Matrix : Default
Duration : 1h 25mn
Bit rate mode : Variable
Bit rate : 4 188 Kbps
Nominal bit rate : 5 000 Kbps
Width : 720 pixels
Height : 576 pixels
Display aspect ratio : 4:3
Frame rate : 25.000 fps
Standard : PAL
Color space : YUV
Chroma subsampling : 4:2:0
Bit depth : 8 bits
Scan type : Interlaced
Scan order : Top Field First
Compression mode : Lossy
Bits/(Pixel*Frame) : 0.404
Stream size : 2.50 GiB (94%)
Writing library : (c) 1998-2008 Womble Multimedia, Inc. / MPEG Video Wizard (08/2008) / Aug 25 2008

Audio
ID : 192 (0xC0)
Format : MPEG Audio
Format version : Version 1
Format profile : Layer 2
Duration : 1h 25mn
Bit rate mode : Constant
Bit rate : 192 Kbps
Channel(s) : 2 channels
Sampling rate : 48.0 KHz
Compression mode : Lossy
Stream size : 117 MiB (4%)

Релиз спутникового канала: 1 TVRUS Europe



   Похожие торренты   Торрент   Размер 
В этой теме нет новых непрочитанных сообщений. Повторная свадьба (1976) SATRip

1 | 4

606.69 МБ

В этой теме нет новых непрочитанных сообщений. Повторная свадьба (1976) TVRip

11 | 6

1.09 ГБ

В этой теме нет новых непрочитанных сообщений. Гавайская свадьба / Пляж : свадьба на Гавайах / Baywatch Hawaiian wedding (2003) DVDRip | P2

31 | 2

1.38 ГБ

В этой теме нет новых непрочитанных сообщений. Свадьба / Свадьба (2000) DVD9

5 | 3

5.48 ГБ

В этой теме нет новых непрочитанных сообщений. Свадьба / Свадьба (2000) DVD9

16 | 1

5.48 ГБ

В этой теме нет новых непрочитанных сообщений. Повторная встряска / Последствия / Aftershock (1990) DVDRip | Sub

0 | 2

696.94 МБ

В этой теме нет новых непрочитанных сообщений. Повторная жизнь / ReLIFE [ТВ] [01-03 из 12] (2016) HDTVRip 720p | L1

0 | 1

1.01 ГБ




Вы не можете начинать темы
Вы не можете отвечать на сообщения
Вы не можете редактировать свои сообщения
Вы не можете удалять свои сообщения
Вы не можете добавлять вложения

Перейти:  
Для Мосгорсуда, Роскомнадзора и рекламодателей: mosgorsud-torrent[собачка]yandex.ru
 Вход
ppkBB3cker v.2 © 2008-2014 @ PPK
[ Time : 0.995s | 14 Queries | GZIP : On ]

Торрент трекер RUTOR.IN, Не можете зайти на rutor.org? Какой новый адрес рутор? Какое зеркало рутор? Не работает rutor.org и зеркала? Тогда наш торрент специально для вас. Rutor.in неофициальное зеркало rutor. В случае если у Вас заблокирован rutor или вдруг Вы не можете на него зайти, то Вы без труда сможете скачать бесплатно и без рекламы последние новинки кино, игр, сериалов и прочего у нас, на Rutor.in. Не нужно использовать прокси, чтобы зайти на рутор, достаточно воспользоваться нашим ресурсом. Все новые фильмы, игры, сериалы, книги и музыка за 2013 и 2014 годы через торрент бесплатно. Скачивайте фильмы в хорошем качестве, игры для пк, xbox, playstation без регистрации. У нас вы найдете новые Зарубежные сериалы и Русские сериалы 2013, 2014, 2015 годов. Оставайтесь с нами, качайте любимые фильмы, игры, сериалы, книги и музыку.