img image001 image001 image001 image001 image001 image001 image001 image001 image001 image001 image001 image001 image001 image001 image001

Planets Sun Sun Sun
Статистика раздачи
Автор: Снежана | Размер: 745.72 МБ | Добавлен: 24 июл 2013
Раздают: 82    Качают: 11
Скачать торрент
Скачать торрент
Описание торрента

СообщениеДобавлено: 24 июл 2013 

#77

Информация о фильме
Название: В зоне особого внимания
Год выхода: 1977
Жанр: боевик
Режиссер: Андрей Малюков
В ролях: Борис Галкин, Михай Волонтир, Анатолий Кузнецов, Сергей Волкош, Игорь Иванов, Александр Пятков, Елена Цыплакова, Юрий Чернов, Александр Гай, Николай Крюков

О фильме:
Во время военных учений командир гвардейского полка направляет в тыл «врага» три диверсионные группы для обнаружения и захвата замаскированного командного пункта. Срок исполнения — двое суток. Разведчики выполняют задание в условиях, максимально приближенных к боевым…

Страна: СССР
Продолжительность: 01:32:17
Перевод: Не требуется

Файл
Кодек: XviD / MP3
Качество: DVDRip
Видео: XviD, 640x368 (16:9), 25.000 fps, 992 Kbps (0.168 bit/pixel)
Звук: MP3, 48.0 KHz, 2 ch, 128 Kbps, CBR


General
Complete name : /media/V.Zone.Osobogo.Vnimaniya_DVDRip.745_[Rutor.org].avi
Format : AVI
Format/Info : Audio Video Interleave
File size : 746 MiB
Duration : 1h 32mn
Overall bit rate : 1 130 Kbps
Writing application : VirtualDubMod 1.5.10.2 (build 2540/release)
Writing library : VirtualDubMod build 2540/release

Video
ID : 0
Format : MPEG-4 Visual
Format profile : Advanced Simple@L5
Format settings, BVOP : 1
Format settings, QPel : No
Format settings, GMC : No warppoints
Format settings, Matrix : Default (MPEG)
Codec ID : XVID
Codec ID/Hint : XviD
Duration : 1h 32mn
Bit rate : 992 Kbps
Width : 640 pixels
Height : 368 pixels
Display aspect ratio : 16:9
Frame rate : 25.000 fps
Color space : YUV
Chroma subsampling : 4:2:0
Bit depth : 8 bits
Scan type : Progressive
Compression mode : Lossy
Bits/(Pixel*Frame) : 0.168
Stream size : 655 MiB (88%)
Writing library : XviD 1.2.1 (UTC 2008-12-04)

Audio
ID : 1
Format : MPEG Audio
Format version : Version 1
Format profile : Layer 3
Codec ID : 55
Codec ID/Hint : MP3
Duration : 1h 32mn
Bit rate mode : Constant
Bit rate : 128 Kbps
Channel(s) : 2 channels
Sampling rate : 48.0 KHz
Compression mode : Lossy
Stream size : 84.5 MiB (11%)
Alignment : Aligned on interleaves
Interleave, duration : 40 ms (1.00 video frame)
Interleave, preload duration : 504 ms
Writing library : LAME3.98r
Encoding settings : -m s -V 4 -q 2 -lowpass 17 -b 128



   Похожие торренты   Торрент   Размер 
В этой теме нет новых непрочитанных сообщений. В зоне особого внимания (1977) DVDRip

506 | 15

1.46 ГБ

В этой теме нет новых непрочитанных сообщений. В зоне особого внимания (1977) DVDRip от MediaClub | КПК

23 | 7

417.55 МБ

В этой теме нет новых непрочитанных сообщений. В зоне особого внимания + Ответный ход (1977-1981) DVDRip

0 | 305

1.41 ГБ

В этой теме нет новых непрочитанных сообщений. В зоне особого внимания (1977) DVD5 by гаврила

77 | 11

3.94 ГБ

В этой теме нет новых непрочитанных сообщений. В зоне особого внимания + Ответный ход (1977-1981) DVD9

8 | 21

7.5 ГБ

В этой теме нет новых непрочитанных сообщений. В зоне особого внимания + Ответный ход (1978-1981) DVDRip-AVC

388 | 75

2.55 ГБ

В этой теме нет новых непрочитанных сообщений. В зоне особого риска [эфир 11.07] (2011) SATRip

0 | 2

263.95 МБ




Вы не можете начинать темы
Вы не можете отвечать на сообщения
Вы не можете редактировать свои сообщения
Вы не можете удалять свои сообщения
Вы не можете добавлять вложения

Перейти:  
Для Мосгорсуда, Роскомнадзора и рекламодателей: mosgorsud-torrent[собачка]yandex.ru
 Вход
ppkBB3cker v.2 © 2008-2014 @ PPK
[ Time : 0.022s | 16 Queries | GZIP : Off ]

Торрент трекер RUTOR.IN, Не можете зайти на rutor.org? Какой новый адрес рутор? Какое зеркало рутор? Не работает rutor.org и зеркала? Тогда наш торрент специально для вас. Rutor.in неофициальное зеркало rutor. В случае если у Вас заблокирован rutor или вдруг Вы не можете на него зайти, то Вы без труда сможете скачать бесплатно и без рекламы последние новинки кино, игр, сериалов и прочего у нас, на Rutor.in. Не нужно использовать прокси, чтобы зайти на рутор, достаточно воспользоваться нашим ресурсом. Все новые фильмы, игры, сериалы, книги и музыка за 2013 и 2014 годы через торрент бесплатно. Скачивайте фильмы в хорошем качестве, игры для пк, xbox, playstation без регистрации. У нас вы найдете новые Зарубежные сериалы и Русские сериалы 2013, 2014, 2015 годов. Оставайтесь с нами, качайте любимые фильмы, игры, сериалы, книги и музыку.