img image001 image001 image001 image001 image001 image001 image001 image001 image001 image001 image001 image001 image001 image001 image001

Planets Sun Sun Sun
Статистика раздачи
Автор: Снежана | Размер: 1.46 ГБ | Добавлен: 24 июл 2013
Раздают: 161    Качают: 9
Скачать торрент
Скачать торрент
Описание торрента

СообщениеДобавлено: 24 июл 2013 

#77

Страны: Россия
Жанр: драма
Год выпуска: 2012
Продолжительность: 01:23:11

Перевод: не требуеется
Cубтитры: нет

Режиссер: Авдотья Смирнова

В ролях: Анна Михалкова, Яна Троянова, Евгений Муравич, Геннадий Смирнов, Юлия Снигирь, Анна Пармас, Константин Шелестун, Любовь Аркус, Татьяна Рябоконь, Сергей Борисов...

Описание:С утра — работа в музее этнографии, вечером — новости по Рен-ТВ, по выходным — митинги и секс с бывшим мужем, научным работником среднего звена. Лиза — типичный представитель питерской интеллигенции. Вика — обычная провинциалка. Отпуск в Петербурге для нее — это водка, вечеринки и авантюры. Казалось, между ними нет ничего общего. Однако, по воле случая они встретились — и сошлись: вода и пламень, синий чулок и тусовщица, интеллигенция и народ. Лиза и Вика — две стороны одной медали по имени Россия.
«Кококо» — вечная комедия русской жизни!





Исходник: DVD5 R5
Качество: DVDRip
Формат: AVI

Видео: 720x384 (1.85:1), 25 fps, XVID ~ 2051 kbps avg, 0.297 bit/pixel
Аудио: 48 kHz, AC3, 6 ch, 448 kbps

Раздача от:

Общее
Полное имя : Kokoko.2012.O.DVDRip_[Youtracker].avi
Формат : AVI
Формат/Информация : Audio Video Interleave
Размер файла : 1,46 Гбайт
Продолжительность : 1 ч. 23 м.
Общий поток : 2508 Кбит/сек
Программа кодирования : VirtualDubMod 1.5.10.3 | www.virtualdub-fr.org || (build 2550/release)
Библиотека кодирования : VirtualDubMod build 2550/release

Видео
Идентификатор : 0
Формат : MPEG-4 Visual
Профиль формата : Advanced Simple@L5
Параметр BVOP формата : 2
Параметр QPel формата : Нет
Параметр GMC формата : Без точки перехода
Параметр матрицы формата : Выборочная
Идентификатор кодека : XVID
Идентификатор кодека/Подсказка : XviD
Продолжительность : 1 ч. 23 м.
Битрейт : 2051 Кбит/сек
Ширина : 720 пикселей
Высота : 384 пикселя
Соотношение сторон : 1,85:1
Частота кадров : 25,000 кадров/сек
Цветовое пространство : YUV
Субдискретизация насыщенности : 4:2:0
Битовая глубина : 8 бит
Тип развёртки : Прогрессивная
Метод сжатия : С потерями
Бит/(Пиксели*Кадры) : 0.297
Размер потока : 1,19 Гбайт (82%)
Библиотека кодирования : XviD 1.2.1 (UTC 2008-12-04)

Аудио
Идентификатор : 1
Формат : AC-3
Формат/Информация : Audio Coding 3
Расширение режима : CM (complete main)
Параметр Endianness формата : Big
Идентификатор кодека : 2000
Продолжительность : 1 ч. 23 м.
Вид битрейта : Постоянный
Битрейт : 448 Кбит/сек
Каналы : 6 каналов
Расположение каналов : Front: L C R, Side: L R, LFE
Частота : 48,0 КГц
Битовая глубина : 16 бит
Метод сжатия : С потерями
Размер потока : 267 Мбайт (18%)
Выравнивание : Разделение по промежуткам
Продолжительность промежутка : 40 мс. (1,00 видеокадр)
Время предзагрузки промежутка : 500 мс.





   Похожие торренты   Торрент   Размер 
В этой теме нет новых непрочитанных сообщений. Кококо (2012) DVDRip от Youtracker

54 | 3

745.12 МБ

В этой теме нет новых непрочитанных сообщений. Кококо (2012) DVD5 от Youtracker | лицензия

11 | 3

4.06 ГБ

В этой теме нет новых непрочитанных сообщений. Кококо (2012) DVDRip | КПК от Generalfilm

12 | 2

285.88 МБ

В этой теме нет новых непрочитанных сообщений. Кококо (2012) DVDRip-AVC от LOxana

56 | 2

1.37 ГБ

В этой теме нет новых непрочитанных сообщений. Краплёный [01-24 из 24] (2012) DVDRip от Youtracker

322 | 89

8.78 ГБ

В этой теме нет новых непрочитанных сообщений. Туман 2 (2012) DVDRip от Youtracker

148 | 7

2.19 ГБ

В этой теме нет новых непрочитанных сообщений. Геймеры [01-08 из 08] (2012) DVDRip от Youtracker

24 | 11

4.38 ГБ




Вы не можете начинать темы
Вы не можете отвечать на сообщения
Вы не можете редактировать свои сообщения
Вы не можете удалять свои сообщения
Вы не можете добавлять вложения

Перейти:  
Для Мосгорсуда, Роскомнадзора и рекламодателей: mosgorsud-torrent[собачка]yandex.ru
 Вход
ppkBB3cker v.2 © 2008-2014 @ PPK
[ Time : 0.045s | 14 Queries | GZIP : Off ]

Торрент трекер RUTOR.IN, Не можете зайти на rutor.org? Какой новый адрес рутор? Какое зеркало рутор? Не работает rutor.org и зеркала? Тогда наш торрент специально для вас. Rutor.in неофициальное зеркало rutor. В случае если у Вас заблокирован rutor или вдруг Вы не можете на него зайти, то Вы без труда сможете скачать бесплатно и без рекламы последние новинки кино, игр, сериалов и прочего у нас, на Rutor.in. Не нужно использовать прокси, чтобы зайти на рутор, достаточно воспользоваться нашим ресурсом. Все новые фильмы, игры, сериалы, книги и музыка за 2013 и 2014 годы через торрент бесплатно. Скачивайте фильмы в хорошем качестве, игры для пк, xbox, playstation без регистрации. У нас вы найдете новые Зарубежные сериалы и Русские сериалы 2013, 2014, 2015 годов. Оставайтесь с нами, качайте любимые фильмы, игры, сериалы, книги и музыку.