img image001 image001 image001 image001 image001 image001 image001 image001 image001 image001 image001 image001 image001 image001 image001

Planets Sun Sun Sun
Статистика раздачи
Автор: Снежана | Размер: 745.95 МБ | Добавлен: 24 июл 2013
Раздают: 39    Качают: 7
Скачать торрент
Скачать торрент
Описание торрента

СообщениеДобавлено: 24 июл 2013 

#77

Информация о фильме
Название: Парк советского периода
Год выхода: 2006
Жанр: драма, комедия
Режиссер: Юлий Гусман
В ролях: Александр Абдулов, Владимир Этуш, Сергей Никоненко, Алексей Булдаков, Лидия Федосеева-Шукшина, Нина Усатова, Александр Лазарев мл., Владимир Долинский, Александр Пашутин, Елизавета Боярская

О фильме:
Не без помощи западных инвесторов российские бизнесмены реконструировали «островок советской жизни» и назвали свое детище «Парком мечты». И море здесь есть, и почти настоящий Кремль рядом, и реки, и горы, и пустыня — все в одном парке. И окружать гостей будут самые известные люди тех лет — актеры, певцы, шахматисты…

Популярный тележурналист Олег Зимин, который должен был дать рекламу этого парка в своей программе, становится одним из первых его посетителей. Уставший от московских неприятностей, которые обрушились на него со всех сторон, он решает заодно и отдохнуть. Сначала все вызывает у Олега искренний восторг и все напоминает о юности.

Олег влюбляется в Алену Волкову, одну из лучших работниц парка. Но вскоре ему дают понять, что контакты между сотрудниками парка и отдыхающими запрещены и что у Алены есть поклонник — массовик-затейник Роберт, и что товарищ Роберт — один из главных людей в администрации парка…

Страна: Россия
Продолжительность: 02:05:41
Перевод: Не требуется

Файл
Кодек: XviD / MP3
Качество: DVDRip
Видео: XviD, 640x352 (16:9), 25.000 fps, 710 Kbps (0.126 bit/pixel)
Звук: MP3, 44.1 KHz, 2 ch, 112 Kbps, CBR (Russian)


General
Complete name : /media/Park.Sovetskogo.perioda_DVDRip.745_[Rutor.org].avi
Format : AVI
Format/Info : Audio Video Interleave
File size : 746 MiB
Duration : 2h 5mn
Overall bit rate : 830 Kbps
Writing application : VirtualDubMod 1.5.4.1 (build 2178/release)
Writing library : VirtualDubMod build 2178/release

Video
ID : 0
Format : MPEG-4 Visual
Format profile : Advanced Simple@L5
Format settings, BVOP : 1
Format settings, QPel : No
Format settings, GMC : No warppoints
Format settings, Matrix : Custom
Codec ID : XVID
Codec ID/Hint : XviD
Duration : 2h 5mn
Bit rate : 710 Kbps
Width : 640 pixels
Height : 352 pixels
Display aspect ratio : 16:9
Frame rate : 25.000 fps
Color space : YUV
Chroma subsampling : 4:2:0
Bit depth : 8 bits
Scan type : Progressive
Compression mode : Lossy
Bits/(Pixel*Frame) : 0.126
Stream size : 639 MiB (86%)
Writing library : XviD 65

Audio
ID : 1
Format : MPEG Audio
Format version : Version 1
Format profile : Layer 3
Mode : Joint stereo
Mode extension : MS Stereo
Codec ID : 55
Codec ID/Hint : MP3
Duration : 2h 5mn
Bit rate mode : Constant
Bit rate : 112 Kbps
Channel(s) : 2 channels
Sampling rate : 44.1 KHz
Compression mode : Lossy
Stream size : 101 MiB (13%)
Alignment : Split accross interleaves
Interleave, duration : 80 ms (2.00 video frames)
Interleave, preload duration : 500 ms
Writing library : LAME3.99r
Encoding settings : -m j -V 4 -q 2 -lowpass 15.6 -b 112
Language : Russian



   Похожие торренты   Торрент   Размер 
В этой теме нет новых непрочитанных сообщений. Парк Советского периода (2006) DVDRip

7 | 2

1.36 ГБ

В этой теме нет новых непрочитанных сообщений. Парк советского периода (2006) DVDRip от Киномагия

61 | 9

2.05 ГБ

В этой теме нет новых непрочитанных сообщений. Парк Юрского периода 2: Затерянный мир / Jurassic Park II (1997) DVDRip от HQ-ViDEO

23 | 5

2.18 ГБ

В этой теме нет новых непрочитанных сообщений. Парк Юрского периода 1,2,3 / Jurassic Park 1,2,3 (1995-2001) DVDRip-AVC от Zlofenix

54 | 15

5.56 ГБ

В этой теме нет новых непрочитанных сообщений. Майкл Крайтон - Парк Юрского периода (1993) MP3

14 | 5

450.33 МБ

В этой теме нет новых непрочитанных сообщений. Парк Юрского периода / Jurassic Park (1993) DVD9

0 | 2

7.66 ГБ

В этой теме нет новых непрочитанных сообщений. Парк Юрского периода / Jurassic Park (1993) BDRip | D

867 | 43

1.46 ГБ




Вы не можете начинать темы
Вы не можете отвечать на сообщения
Вы не можете редактировать свои сообщения
Вы не можете удалять свои сообщения
Вы не можете добавлять вложения

Перейти:  
Для Мосгорсуда, Роскомнадзора и рекламодателей: mosgorsud-torrent[собачка]yandex.ru
 Вход
ppkBB3cker v.2 © 2008-2014 @ PPK
[ Time : 0.028s | 15 Queries | GZIP : Off ]

Торрент трекер RUTOR.IN, Не можете зайти на rutor.org? Какой новый адрес рутор? Какое зеркало рутор? Не работает rutor.org и зеркала? Тогда наш торрент специально для вас. Rutor.in неофициальное зеркало rutor. В случае если у Вас заблокирован rutor или вдруг Вы не можете на него зайти, то Вы без труда сможете скачать бесплатно и без рекламы последние новинки кино, игр, сериалов и прочего у нас, на Rutor.in. Не нужно использовать прокси, чтобы зайти на рутор, достаточно воспользоваться нашим ресурсом. Все новые фильмы, игры, сериалы, книги и музыка за 2013 и 2014 годы через торрент бесплатно. Скачивайте фильмы в хорошем качестве, игры для пк, xbox, playstation без регистрации. У нас вы найдете новые Зарубежные сериалы и Русские сериалы 2013, 2014, 2015 годов. Оставайтесь с нами, качайте любимые фильмы, игры, сериалы, книги и музыку.