img image001 image001 image001 image001 image001 image001 image001 image001 image001 image001 image001 image001 image001 image001 image001

Planets Sun Sun Sun
Статистика раздачи
Автор: Снежана | Размер: 745.12 МБ | Добавлен: 24 июл 2013
Раздают: 54    Качают: 3
Скачать торрент
Скачать торрент
Описание торрента

СообщениеДобавлено: 24 июл 2013 

#77

Страны: Россия
Жанр: драма
Год выпуска: 2012
Продолжительность: 01:23:11

Перевод: не требуеется
Cубтитры: нет

Режиссер: Авдотья Смирнова

В ролях: Анна Михалкова, Яна Троянова, Евгений Муравич, Геннадий Смирнов, Юлия Снигирь, Анна Пармас, Константин Шелестун, Любовь Аркус, Татьяна Рябоконь, Сергей Борисов...

Описание: С утра — работа в музее этнографии, вечером — новости по Рен-ТВ, по выходным — митинги и секс с бывшим мужем, научным работником среднего звена. Лиза — типичный представитель питерской интеллигенции. Вика — обычная провинциалка. Отпуск в Петербурге для нее — это водка, вечеринки и авантюры. Казалось, между ними нет ничего общего. Однако, по воле случая они встретились — и сошлись: вода и пламень, синий чулок и тусовщица, интеллигенция и народ. Лиза и Вика — две стороны одной медали по имени Россия.
«Кококо» — вечная комедия русской жизни!





Исходник: DVD5 R5
Качество: DVDRip
Формат: AVI

Видео: 656x352 (1.85:1), 25 fps, XVID ~ 1115 kbps avg, 0.193 bit/pixel
Аудио: 48 kHz, МР3, 2 ch, 448 kbps

Раздача от:

Общее
Полное имя : Kokoko.2012.O.DVDRip.745MB_[Youtracker]_by_avproh.avi
Формат : AVI
Формат/Информация : Audio Video Interleave
Размер файла : 745 Мбайт
Продолжительность : 1 ч. 23 м.
Общий поток : 1252 Кбит/сек
Программа кодирования : VirtualDubMod 1.5.10.3 (build 2550/release)
Библиотека кодирования : VirtualDubMod build 2550/release

Видео
Идентификатор : 0
Формат : MPEG-4 Visual
Профиль формата : Advanced Simple@L5
Параметр BVOP формата : 1
Параметр QPel формата : Нет
Параметр GMC формата : Без точки перехода
Параметр матрицы формата : Выборочная
Идентификатор кодека : XVID
Идентификатор кодека/Подсказка : XviD
Продолжительность : 1 ч. 23 м.
Битрейт : 1115 Кбит/сек
Ширина : 656 пикселей
Высота : 352 пикселя
Соотношение сторон : 1,85:1
Частота кадров : 25,000 кадров/сек
Цветовое пространство : YUV
Субдискретизация насыщенности : 4:2:0
Битовая глубина : 8 бит
Тип развёртки : Прогрессивная
Метод сжатия : С потерями
Бит/(Пиксели*Кадры) : 0.193
Размер потока : 663 Мбайт (89%)
Библиотека кодирования : XviD 65

Аудио
Идентификатор : 1
Формат : MPEG Audio
Версия формата : Version 1
Профиль формата : Layer 3
Режим : Joint stereo
Расширение режима : MS Stereo
Идентификатор кодека : 55
Идентификатор кодека/Подсказка : MP3
Продолжительность : 1 ч. 23 м.
Вид битрейта : Постоянный
Битрейт : 128 Кбит/сек
Каналы : 2 канала
Частота : 48,0 КГц
Метод сжатия : С потерями
Размер потока : 76,2 Мбайт (10%)
Выравнивание : Соединение по промежуткам
Продолжительность промежутка : 40 мс. (1,00 видеокадр)
Время предзагрузки промежутка : 504 мс.





   Похожие торренты   Торрент   Размер 
В этой теме нет новых непрочитанных сообщений. Кококо (2012) DVDRip от Youtracker

161 | 9

1.46 ГБ

В этой теме нет новых непрочитанных сообщений. Кококо (2012) DVD5 от Youtracker | лицензия

11 | 3

4.06 ГБ

В этой теме нет новых непрочитанных сообщений. Кококо (2012) DVDRip-AVC от LOxana

56 | 2

1.37 ГБ

В этой теме нет новых непрочитанных сообщений. Кококо (2012) DVDRip | КПК от Generalfilm

12 | 2

285.88 МБ

В этой теме нет новых непрочитанных сообщений. сНежное шоу 3D (2012) DVDRip от Youtracker

10 | 2

1.17 ГБ

В этой теме нет новых непрочитанных сообщений. Краплёный [01-24 из 24] (2012) DVDRip от Youtracker

322 | 89

8.78 ГБ

В этой теме нет новых непрочитанных сообщений. Туман 2 (2012) DVDRip от Youtracker

148 | 7

2.19 ГБ




Вы не можете начинать темы
Вы не можете отвечать на сообщения
Вы не можете редактировать свои сообщения
Вы не можете удалять свои сообщения
Вы не можете добавлять вложения

Перейти:  
Для Мосгорсуда, Роскомнадзора и рекламодателей: mosgorsud-torrent[собачка]yandex.ru
 Вход
ppkBB3cker v.2 © 2008-2014 @ PPK
[ Time : 0.042s | 15 Queries | GZIP : Off ]

cron