img image001 image001 image001 image001 image001 image001 image001 image001 image001 image001 image001 image001 image001 image001 image001

Planets Sun Sun Sun
Статистика раздачи
Автор: Снежана | Размер: 937.15 МБ | Добавлен: 24 июл 2013
Раздают: 3    Качают: 5
Скачать торрент
Скачать торрент
Описание торрента

СообщениеДобавлено: 24 июл 2013 



Информация о фильме
Название: Людмила
Год выхода: 1982
Жанр: Драма
Режиссер: Валентин Морозов, Сергей Данилин
В ролях: Надежда Шумилова, Аристарх Ливанов, Георгий Дрозд, Юрий Дедович, Наталья Андрейченко, Олег Корчиков, Борис Аракелов, Фёдор Одиноков, Олег Казанчеев, Александр Рыжков, Владимир Трещалов

О фильме:
Фильм о единственной в мире женщине-командире бронепоезда (Википедия). Героиня фильма Людмила Никольская (в жизни - Макиевская), дворянка по происхождению, окончившая Смольный институт, была с теми, кто штурмовал Зимний. Участница вооружённого восстания в Екатеринославле, командир и комиссар бронепоезда, она погибла в боевой операции по захвату укрепленного штаба врага.
В годы Гражданской войны купянские железнодорожники сражались в рядах Красной Армии. В составе 13-й Армии южного фронта действовал бронепоезд "Власть Советам", организатором и командиром которого была 23-летняя Людмила Георгиевна Макиевская. Бронепоезд вёл бои на участке Купянск - Дебальцево.

General
Complete name : C:Ludmila.1982.XviD.SATRip.avi
Format : AVI
Format/Info : Audio Video Interleave
File size : 937 MiB
Duration : 1h 16mn 06s
Overall bit rate : 1 721 Kbps
Writing application : VirtualDubMod 1.5.10.2 (build 2540/release)
Writing library : VirtualDubMod build 2540/release
Video #0
ID : 0
Format : MPEG-4 Visual
Format profile : Advanced Simple@L5
Format settings, BVOP : 1
Format settings, QPel : No
Format settings, GMC : No warppoints
Format settings, Matrix : Default (H.263)
Codec ID : XVID
Codec ID/Hint : XviD
Duration : 1h 16mn 06s
Bit rate : 1 520 Kbps
Width : 704 pixels
Height : 528 pixels
Display aspect ratio : 4:3
Frame rate : 25.000 fps
Color space : YUV
Chroma subsampling : 4:2:0
Bit depth : 8 bits
Scan type : Progressive
Compression mode : Lossy
Bits/(Pixel*Frame) : 0.164
Stream size : 827 MiB (88%)
Writing library : XviD 1.2.0.dev47 (UTC 2006-11-01)
Audio #1
ID : 1
Format : AC-3
Format/Info : Audio Coding 3
Mode extension : CM (complete main)
Format settings, Endianness : Big
Codec ID : 2000
Duration : 1h 16mn 06s
Bit rate mode : Constant
Bit rate : 192 Kbps
Channel(s) : 2 channels
Channel positions : Front: L R
Sampling rate : 48.0 KHz
Bit depth : 16 bits
Compression mode : Lossy
Stream size : 105 MiB (11%)
Alignment : Split accross interleaves
Interleave, duration : 40 ms (1.00 video frame)
Interleave, preload duration : 500 ms




Страна: СССР
Студия: Ленфильм
Продолжительность: 01:16:06
Перевод: Не требуется
Файл
Кодек: XviD
Качество: SATRip
Видео: 704x528, 1520 kbps, 25 fps
Звук: AC3, 2 ch, 192 kbps

Семпл

, , ,


Релиз от:




   Похожие торренты   Торрент   Размер 
В этой теме нет новых непрочитанных сообщений. Кумиры - Людмила Гурченко - Моё взрослое детство (чит. Людмила Гурченко) (1983) (2010) MP3

68 | 4

921.08 МБ

В этой теме нет новых непрочитанных сообщений. Людмила [01-08 из 08] (2013) SATRip от Files-X

171 | 14

4.3 ГБ

В этой теме нет новых непрочитанных сообщений. Людмила Гурченко [01x01-02 из 12] (2015) SATRip

532 | 177

2.3 ГБ

В этой теме нет новых непрочитанных сообщений. Людмила Гурченко [01x01 из 12] (2015) SATRip

34 | 3

599.54 МБ

В этой теме нет новых непрочитанных сообщений. Людмила Гурченко [01x01-02 из 12] (2015) SATRip

955 | 455

3.48 ГБ

В этой теме нет новых непрочитанных сообщений. Временно доступен. Людмила Гурченко (2010) SATRip от tenow

0 | 2

578.9 МБ

В этой теме нет новых непрочитанных сообщений. Людмила Нильская. Танго на битом стекле (2012) SATRip от KinoZalSat

1 | 2

634.2 МБ




Вы не можете начинать темы
Вы не можете отвечать на сообщения
Вы не можете редактировать свои сообщения
Вы не можете удалять свои сообщения
Вы не можете добавлять вложения

Перейти:  
Для Мосгорсуда, Роскомнадзора и рекламодателей: mosgorsud-torrent[собачка]yandex.ru
 Вход
ppkBB3cker v.2 © 2008-2014 @ PPK
[ Time : 0.038s | 15 Queries | GZIP : Off ]

cron