img image001 image001 image001 image001 image001 image001 image001 image001 image001 image001 image001 image001 image001 image001 image001

Planets Sun Sun Sun
Статистика раздачи
Автор: Снежана | Размер: 4.37 ГБ | Добавлен: 24 июл 2013
Раздают: 2534    Качают: 240
Скачать торрент
Скачать торрент
Описание торрента

СообщениеДобавлено: 24 июл 2013 

#77

Информация о фильме
Название: Тени исчезают в полдень
Год выхода: 1971
Жанр: драма
Режиссер: Владимир Краснопольский, Валерий Усков
В ролях: Пётр Вельяминов, Нина Русланова, Сергей Яковлев, Александра Завьялова, Борис Новиков, Валерий Гатаев, Элеонора Шашкова, Лев Поляков, Галина Польских, Геннадий Корольков, Ольга Науменко, Анатолий Шаляпин, Евгений Шутов, Иван Рыжов, Анатолий Соловьев, Людмила Давыдова (Шляхтур), Юрий Орлов, Валерий Малышев, Валентина Владимирова, Роман Филиппов, Сергей Полежаев, Галина Логинова, Ирина Борисова, Владимир Самойлов, Петр Должанов, Борис Чинкин, Александра Данилова, Валентина Ананьина, Клавдия Козленкова, Лариса Воронова, Василий Свистунов, Николай Лиров, Клавдия Хабарова, Тамара Логинова

О фильме:
История небольшой деревни Зеленый Дол, затерявшейся в таежной глуши, стала отражением судьбы огромной страны. Перед зрителем разворачивается широкая панорама народной жизни: от разгрома белых банд Колчака до первой борозды трактора на колхозной меже, от первых выборов в Верховный Совет до проводов зеленодольцев на фронты Великой Отечественной войны, от трудового подвига женских рук в тылу до Дня Победы, до первого послевоенного хлеба.

Страна: СССР
Студия: Киностудия «Мосфильм» по заказу Гостелерадио СССР
Продолжительность: 08:08:38 (01:18:32 + 01:11:29 + 01:09:01 + 01:13:34 + 01:03:19 + 01:08:55 + 01:03:48)
Перевод: Не требуется

Файл
Кодек: XviD / AC3
Качество: DVDRip
Видео: XviD, 640x480 (4:3), 25.000 fps, 1 081 Kbps (0.141 bit/pixel)
Звук: AC-3, 48.0 KHz, 2 ch, 192 Kbps, CBR


General
Complete name : /media/Тени Исчезают в Полдень/Тени Исчезают в Полдень_1_Красная Марья.avi
Format : AVI
Format/Info : Audio Video Interleave
File size : 720 MiB
Duration : 1h 18mn
Overall bit rate : 1 282 Kbps
Writing application : VirtualDubMod 1.5.10.2 (build 2540/release)
Writing library : VirtualDubMod build 2540/release

Video
ID : 0
Format : MPEG-4 Visual
Format profile : Advanced Simple@L5
Format settings, BVOP : 1
Format settings, QPel : No
Format settings, GMC : No warppoints
Format settings, Matrix : Custom
Codec ID : XVID
Codec ID/Hint : XviD
Duration : 1h 18mn
Bit rate : 1 081 Kbps
Width : 640 pixels
Height : 480 pixels
Display aspect ratio : 4:3
Frame rate : 25.000 fps
Color space : YUV
Chroma subsampling : 4:2:0
Bit depth : 8 bits
Scan type : Progressive
Compression mode : Lossy
Bits/(Pixel*Frame) : 0.141
Stream size : 607 MiB (84%)
Writing library : XviD 1.2.1 (UTC 2008-12-04)

Audio
ID : 1
Format : AC-3
Format/Info : Audio Coding 3
Mode extension : CM (complete main)
Format settings, Endianness : Big
Codec ID : 2000
Duration : 1h 18mn
Bit rate mode : Constant
Bit rate : 192 Kbps
Channel(s) : 2 channels
Channel positions : Front: L R
Sampling rate : 48.0 KHz
Bit depth : 16 bits
Compression mode : Lossy
Stream size : 108 MiB (15%)
Alignment : Aligned on interleaves
Interleave, duration : 40 ms (1.00 video frame)
Interleave, preload duration : 512 ms



   Похожие торренты   Торрент   Размер 
В этой теме нет новых непрочитанных сообщений. Тени исчезают в полдень (1971) DVDRip-AVC

105 | 46

13.17 ГБ

В этой теме нет новых непрочитанных сообщений. Тени исчезают в полдень (1971) DVDRip-AVC от fandora

1590 | 162

10.7 ГБ

В этой теме нет новых непрочитанных сообщений. Тени исчезают. Петр Вельяминов (2007) SATRip

0 | 0

550.49 МБ

В этой теме нет новых непрочитанных сообщений. Черный полдень / Black Noon (1971) VHSRip | L1

44 | 7

711.94 МБ

В этой теме нет новых непрочитанных сообщений. Эрих Мария Ремарк - Тени в раю (1971) (2011) MP3

70 | 4

551.42 МБ

В этой теме нет новых непрочитанных сообщений. Жаркий полдень / High Noon (2009) DVDRip

4 | 3

1.37 ГБ

В этой теме нет новых непрочитанных сообщений. Полдень с Гауди / Gaudi Afternoon (2001) DVDRip

28 | 4

1.36 ГБ




Вы не можете начинать темы
Вы не можете отвечать на сообщения
Вы не можете редактировать свои сообщения
Вы не можете удалять свои сообщения
Вы не можете добавлять вложения

Перейти:  
Для Мосгорсуда, Роскомнадзора и рекламодателей: mosgorsud-torrent[собачка]yandex.ru
 Вход
ppkBB3cker v.2 © 2008-2014 @ PPK
[ Time : 0.019s | 14 Queries | GZIP : Off ]
CGP output time : 0.062s | 5 Queries | GZIP : Off

Торрент трекер RUTOR.IN, Не можете зайти на rutor.org? Какой новый адрес рутор? Какое зеркало рутор? Не работает rutor.org и зеркала? Тогда наш торрент специально для вас. Rutor.in неофициальное зеркало rutor. В случае если у Вас заблокирован rutor или вдруг Вы не можете на него зайти, то Вы без труда сможете скачать бесплатно и без рекламы последние новинки кино, игр, сериалов и прочего у нас, на Rutor.in. Не нужно использовать прокси, чтобы зайти на рутор, достаточно воспользоваться нашим ресурсом. Все новые фильмы, игры, сериалы, книги и музыка за 2013 и 2014 годы через торрент бесплатно. Скачивайте фильмы в хорошем качестве, игры для пк, xbox, playstation без регистрации. У нас вы найдете новые Зарубежные сериалы и Русские сериалы 2013, 2014, 2015 годов. Оставайтесь с нами, качайте любимые фильмы, игры, сериалы, книги и музыку.