img image001 image001 image001 image001 image001 image001 image001 image001 image001 image001 image001 image001 image001 image001 image001

Planets Sun Sun Sun
Статистика раздачи
Автор: Снежана | Размер: 743.81 МБ | Добавлен: 24 июл 2013
Раздают: 0    Качают: 2
Скачать торрент
Скачать торрент
Описание торрента

СообщениеДобавлено: 24 июл 2013 

#77

Информация о фильме
Название: Волшебная лампа Аладдина
Год выхода: 1974
Жанр: Фильм-спектакль
Режиссер: Сергей Образцов, Ольга Ушакова
В ролях:
Аладдин - Е.Сперанский,
Мать Аладдина - И.Мазинг,
Султан - Н.Гжельский,
Царевна Будур - Е.Синельникова,
Визирь - Н.Алексахин,
Гадатель - В.Майзель,
Зейнаб - О.Тарасова,
Мудрейший - В.Рябов,
Жулик - Л.Бунин,
Водонос - Е.Началов

О фильме:
Восточный город с золотыми дворцами, парад грациозных тростевых кукол, волшебство чудесных превращений и сказочная фантастика. Грозный Джинн Кашкаш и величественный повелитель пустыни — лев. Романтическая любовь Аладдина и царевны Будур, ради которой горячий и смелый юноша вступил в борьбу с коварным и алчным визирем и преодолел все преграды.

Один из самых красивых спектаклей театра С.В. Образцова - восточный город с золотыми дворцами, парад грациозных кукол, волшебство чудесных превращений и сказочная фантастика. Грозный Джинн Кашкаш и величественный повелитель пустыни - лев. Романтическая любовь Аладдина и царевны Будур, ради которой горячий и смелый юноша вступил в борьбу с коварным и алчным визирем и преодолел все преграды.

Страна: СССР
Студия: Центральный театр кукол
Продолжительность: 01:00:35
Перевод: не требуется

Файл
Кодек: XviD
Качество: DVDRip
Видео: 688x512 (1.34:1), 25 fps, XviD MPEG-4 ~1514 kbps avg
Звук: 48 kHz, AC3 Dolby Digital, 2/0 (L,R) ch, ~192.00 kbps avg

Общее
Полное имя : D:VideoVolschebnaja.lampa.1974.DVDRip.avi
Формат : AVI
Размер файла : 744 Мбайт
Продолжительность : 1 ч. 0 м.
Общий поток : 1716 Кбит/сек
Программа кодирования : VirtualDubModRus 1.5.10.2
Библиотека кодирования : VirtualDubMod build 2542/release

Видео
Идентификатор : 0
Формат : MPEG-4 Visual
Профиль формата : Advanced Simple@L5
Параметр BVOP формата : 2
Параметр QPel формата : Нет
Параметр GMC формата : Без точки перехода
Параметр матрицы формата : Default (MPEG)
Режим смешивания : Сжатый битовый поток
Идентификатор кодека : XVID
Идентификатор кодека/Подсказка : XviD
Продолжительность : 1 ч. 0 м.
Битрейт : 1515 Кбит/сек
Ширина : 688 пикселей
Высота : 512 пикселей
Соотношение сторон : 4:3
Частота кадров : 25,000 кадров/сек
Цветовое пространство : YUV
Субдискретизация насыщенности : 4:2:0
Битовая глубина : 8 бит
Тип развёртки : Прогрессивная
Метод сжатия : С потерями
Бит/(Пиксели*Кадры) : 0.172
Размер потока : 656 Мбайт (88%)
Библиотека кодирования : XviD 1.2.1 (UTC 2008-12-04)

Аудио
Идентификатор : 1
Формат : AC-3
Формат/Информация : Audio Coding 3
Расширение режима : CM (complete main)
Параметр Endianness формата : Big
Идентификатор кодека : 2000
Продолжительность : 1 ч. 0 м.
Вид битрейта : Постоянный
Битрейт : 192 Кбит/сек
Каналы : 2 канала
Расположение каналов : Front: L R
Частота : 48,0 КГц
Битовая глубина : 16 бит
Метод сжатия : С потерями
Размер потока : 83,2 Мбайт (11%)
Выравнивание : Соединение по промежуткам
Продолжительность промежутка : 40 мс. (1,00 видеокадр)
Время предзагрузки промежутка : 512 мс.











Релиз от:



   Похожие торренты   Торрент   Размер 
В этой теме нет новых непрочитанных сообщений. Волшебная лампа Аладдина (1966) DVDRip

11 | 5

1.39 ГБ

В этой теме нет новых непрочитанных сообщений. Мелодия - Волшебная лампа Аладдина (1983) MP3

71 | 2

195.2 МБ

В этой теме нет новых непрочитанных сообщений. Волшебная лампа Аладдина (1966) HDRip от Scarabey

51 | 20

743.27 МБ

В этой теме нет новых непрочитанных сообщений. Волшебная лампа Аладдина (1966) BDRip от HELLYWOOD

85 | 6

1.45 ГБ

В этой теме нет новых непрочитанных сообщений. Волшебная лампа Аладдина (1966) BDRip от New-Team

9 | 0

745.29 МБ

В этой теме нет новых непрочитанных сообщений. Волшебная лампа Аладдина (1966) BDRip 1080p

81 | 14

4.37 ГБ

В этой теме нет новых непрочитанных сообщений. Волшебная лампа Аладдина (1966) HDRip от Scarabey

71 | 13

1.44 ГБ




Вы не можете начинать темы
Вы не можете отвечать на сообщения
Вы не можете редактировать свои сообщения
Вы не можете удалять свои сообщения
Вы не можете добавлять вложения

Перейти:  
Для Мосгорсуда, Роскомнадзора и рекламодателей: mosgorsud-torrent[собачка]yandex.ru
 Вход
ppkBB3cker v.2 © 2008-2014 @ PPK
[ Time : 0.050s | 15 Queries | GZIP : Off ]

cron