img image001 image001 image001 image001 image001 image001 image001 image001 image001 image001 image001 image001 image001 image001 image001

Planets Sun Sun Sun
Статистика раздачи
Автор: Снежана | Размер: 5.76 ГБ | Добавлен: 24 июл 2013
Раздают: 183    Качают: 18
Скачать торрент
Скачать торрент
Описание торрента

СообщениеДобавлено: 24 июл 2013 

#77

Информация о фильме
Название: Белый тигр
Год выхода: 2012
Жанр: военный
Режиссер: Карен Шахназаров
В ролях: Алексей Вертков, Виталий Кищенко, Валерий Гришко, Дмитрий Быковский-Ромашов, Герасим Архипов, Александр Вахов, Виталий Дорджиев, Владимир Ильин, Карл Кранцковски, Кристиан Редль
О фильме: Вторая Мировая война подходит к концу. Тяжелые затяжные бои изматывают обе стороны. Но чем увереннее наступают советские войска, тем чаще на полях сражений появляется огромным неуязвимый немецкий танк «Белый Тигр».

Внезапно возникает он в дыму сражений, безжалостно расстреливает своих противников и неожиданно исчезает. Советское командование решает для борьбы с «Белым Тигром» создать особый танк — специальную модель Т-34—85.



Выпущено: Мосфильм
Продолжительность: 01:48:43
Перевод: Оригинал (лицензия)

Файл
Кодек: x264
Качество: BDRip (источник: Blu-ray Disc)
Видео: 1920x1040 (16:9), 23.976 fps, 7136 kbps
Аудио: AC-3, 6 ch, 448 kbps
Скачать: сэмпл

Скриншоты

Общее
Уникальный идентификатор : 193049031796200599912211466640231393965 (0x913BE41F98BE20F2856CC02919766AAD)
Полное имя : Belyy.tigr.2012.BDRip.1080p.Rus.mkv
Формат : Matroska
Версия формата : Version 2
Размер файла : 5,76 Гбайт
Продолжительность : 1 ч. 48 м.
Общий поток : 7583 Кбит/сек
Название фильма : Белый тигр (2012)
Дата кодирования : UTC 2012-08-17 13:19:46
Программа кодирования : mkvmerge v5.7.0 ('The Whirlwind') built on Jul 8 2012 20:08:51
Библиотека кодирования : libebml v1.2.3 + libmatroska v1.3.0

Видео
Идентификатор : 1
Формат : AVC
Формат/Информация : Advanced Video Codec
Профиль формата : High@L4.1
Параметр CABAC формата : Да
Параметр ReFrames формата : 4 кадра
Идентификатор кодека : V_MPEG4/ISO/AVC
Продолжительность : 1 ч. 48 м.
Битрейт : 7136 Кбит/сек
Ширина : 1920 пикселей
Высота : 1040 пикселей
Соотношение сторон : 16:9
Частота кадров : 23,976 кадра/сек
Цветовое пространство : YUV
Субдискретизация насыщенности : 4:2:0
Битовая глубина : 8 бит
Тип развёртки : Прогрессивная
Бит/(Пиксели*Кадры) : 0.149
Размер потока : 5,30 Гбайт (92%)
Заголовок : Release by AlexKa
Библиотека кодирования : x264 core 125 r2208 d9d2288
Настройки программы : cabac=1 / ref=4 / deblock=1:-3:-3 / analyse=0x3:0x133 / me=umh / subme=10 / psy=1 / psy_rd=1.10:0.10 / mixed_ref=1 / me_range=32 / chroma_me=1 / trellis=2 / 8x8dct=1 / cqm=0 / deadzone=21,11 / fast_pskip=0 / chroma_qp_offset=-3 / threads=12 / lookahead_threads=2 / sliced_threads=0 / nr=0 / decimate=0 / interlaced=0 / bluray_compat=0 / constrained_intra=0 / bframes=5 / b_pyramid=2 / b_adapt=2 / b_bias=0 / direct=3 / weightb=1 / open_gop=0 / weightp=2 / keyint=240 / keyint_min=23 / scenecut=40 / intra_refresh=0 / rc=2pass / mbtree=0 / bitrate=7136 / ratetol=1.0 / qcomp=0.60 / qpmin=0 / qpmax=69 / qpstep=4 / cplxblur=20.0 / qblur=0.5 / ip_ratio=1.40 / pb_ratio=1.30 / aq=1:0.80
Язык : Russian

Аудио
Идентификатор : 2
Формат : AC-3
Формат/Информация : Audio Coding 3
Расширение режима : CM (complete main)
Идентификатор кодека : A_AC3
Продолжительность : 1 ч. 48 м.
Вид битрейта : Постоянный
Битрейт : 448 Кбит/сек
Каналы : 6 каналов
Расположение каналов : Front: L C R, Side: L R, LFE
Частота : 48,0 КГц
Битовая глубина : 16 бит
Метод сжатия : С потерями
Размер потока : 348 Мбайт (6%)
Заголовок : Rus
Язык : Russian

Меню
00:00:00.000 : :Chapter 01
00:06:31.057 : :Chapter 02
00:14:22.653 : :Chapter 03
00:23:08.762 : :Chapter 04
00:33:38.307 : :Chapter 05
00:46:51.266 : :Chapter 06
00:56:08.990 : :Chapter 07
01:05:15.453 : :Chapter 08
01:17:30.896 : :Chapter 09
01:22:59.683 : :Chapter 10
01:32:23.746 : :Chapter 11
01:41:08.645 : :Chapter 12
01:48:42.224 : :Chapter 13
x264 [info]: frame I:928 Avg QP:17.52 size:174277
x264 [info]: frame P:33913 Avg QP:20.30 size: 77277
x264 [info]: frame B:121559 Avg QP:22.54 size: 24956



   Похожие торренты   Торрент   Размер 
В этой теме нет новых непрочитанных сообщений. Белый тигр (2012) BDRip 1080p

5 | 8

9.19 ГБ

В этой теме нет новых непрочитанных сообщений. Белый тигр (2012) BDRip-AVC | iPad

11 | 2

2.8 ГБ

В этой теме нет новых непрочитанных сообщений. Белый тигр (2012) BDRip от ENGINEER

235 | 16

1.46 ГБ

В этой теме нет новых непрочитанных сообщений. Белый тигр (2012) BDRip 720p

56 | 20

5.04 ГБ

В этой теме нет новых непрочитанных сообщений. Белый тигр (2012) [GER] BDRip от HQ-ViDEO

363 | 26

2.19 ГБ

В этой теме нет новых непрочитанных сообщений. Белый тигр (2012) BDRip-AVC от R.G. AVI | AVC | Лицензия

103 | 5

2.18 ГБ

В этой теме нет новых непрочитанных сообщений. Белый тигр (2012) BDRip от MediaClub

127 | 26

748.49 МБ




Вы не можете начинать темы
Вы не можете отвечать на сообщения
Вы не можете редактировать свои сообщения
Вы не можете удалять свои сообщения
Вы не можете добавлять вложения

Перейти:  
Для Мосгорсуда, Роскомнадзора и рекламодателей: mosgorsud-torrent[собачка]yandex.ru
 Вход
ppkBB3cker v.2 © 2008-2014 @ PPK
[ Time : 0.028s | 14 Queries | GZIP : Off ]

Торрент трекер RUTOR.IN, Не можете зайти на rutor.org? Какой новый адрес рутор? Какое зеркало рутор? Не работает rutor.org и зеркала? Тогда наш торрент специально для вас. Rutor.in неофициальное зеркало rutor. В случае если у Вас заблокирован rutor или вдруг Вы не можете на него зайти, то Вы без труда сможете скачать бесплатно и без рекламы последние новинки кино, игр, сериалов и прочего у нас, на Rutor.in. Не нужно использовать прокси, чтобы зайти на рутор, достаточно воспользоваться нашим ресурсом. Все новые фильмы, игры, сериалы, книги и музыка за 2013 и 2014 годы через торрент бесплатно. Скачивайте фильмы в хорошем качестве, игры для пк, xbox, playstation без регистрации. У нас вы найдете новые Зарубежные сериалы и Русские сериалы 2013, 2014, 2015 годов. Оставайтесь с нами, качайте любимые фильмы, игры, сериалы, книги и музыку.