img image001 image001 image001 image001 image001 image001 image001 image001 image001 image001 image001 image001 image001 image001 image001

Planets Sun Sun Sun
Статистика раздачи
Автор: Снежана | Размер: 2.61 ГБ | Добавлен: 24 июл 2013
Раздают: 43    Качают: 6
Скачать торрент
Скачать торрент
Описание торрента

СообщениеДобавлено: 24 июл 2013 

#77
Год выпуска: 1969
Страна: СССР
Студия: КС им. Горького
Жанр: Сказка, семейный
Продолжительность: 01:20:25


Перевод: Не требуется


Режиссер: Александр Роу


В ролях: Михаил Пуговкин, Георгий Милляр, Анатолий Кубацкий, Сергей Николаев, Алексей Катышев, Татьяна Клюева, Варвара Попова, Лидия Королева, Александр Хвыля, Борис Сичкин


Описание: Жил да был царь Еремей. Отправился он в годовой поход, чтобы составить опись своего царства-государства. Наклонился он как-то к колодцу напиться, но тут его и схватил подводный царь Чудо — Юдо. Да потребовал выкуп за освобождение — такой, о чем Еремей не ведал и не гадал, что оно есть в его царстве. Царь согласился, еще не зная, что в его отсутствие царица родила ему сына. Фильм рассказывает о том, как несмотря на всевозможные коварства и интриги, Андрей рыбацкий сын и Варвара повстречались и полюбили друг друга, как царю Еремею пришлось краснеть за своего ленивого и глупого наследника, и как в конце концов все закончилось хорошо...





Качество: BDRip (Рип с Blu-Ray)
Формат: MKV
Видео: кодек: H.264, размер кадра: 1280x544, битрейт: ~4200 Kbps
Аудио: язык: русский, кодек: AC3 5.1, битрейт: 448 Kbps
Cубтитры: русские, форсированные


eneral
Unique ID : 209598215524869075261648206695261770862 (0x9DAF25E081AAB778958E87261AEF946E)
Complete name : E:ВидеоРусские фильмыVarvara.krasa.dlinnaya.kosa.1969.x264.BDRip.720p.mkv
Format : Matroska
Format version : Version 1
File size : 2.61 GiB
Duration : 1h 20mn
Overall bit rate : 4 651 Kbps
Movie name : Варвара-краса, длинная коса (1969) BDRip 720p - FiREBiT.ORG
Encoded date : UTC 2012-08-26 01:16:37
Writing application : mkvmerge v2.3.0 ('Freak U') built on Sep 8 2008 18:32:16
Writing library : libebml v0.7.7 + libmatroska v0.8.1

Video
ID : 1
Format : AVC
Format/Info : Advanced Video Codec
Format profile : High@L4.1
Format settings, CABAC : Yes
Format settings, ReFrames : 9 frames
Codec ID : V_MPEG4/ISO/AVC
Duration : 1h 20mn
Bit rate : 4 200 Kbps
Width : 1 280 pixels
Height : 544 pixels
Display aspect ratio : 2.35:1
Frame rate : 25.000 fps
Color space : YUV
Chroma subsampling : 4:2:0
Bit depth : 8 bits
Scan type : Progressive
Bits/(Pixel*Frame) : 0.241
Stream size : 2.31 GiB (88%)
Title : http://firebit.org
Writing library : x264 core 125 r2208 d9d2288
Encoding settings : cabac=1 / ref=9 / deblock=1:-3:-3 / analyse=0x3:0x113 / me=umh / subme=11 / psy=1 / psy_rd=1.00:0.00 / mixed_ref=1 / me_range=32 / chroma_me=1 / trellis=2 / 8x8dct=1 / cqm=0 / deadzone=21,11 / fast_pskip=1 / chroma_qp_offset=-2 / threads=6 / lookahead_threads=1 / sliced_threads=0 / nr=0 / decimate=1 / interlaced=0 / bluray_compat=0 / constrained_intra=0 / bframes=6 / b_pyramid=2 / b_adapt=2 / b_bias=0 / direct=2 / weightb=0 / open_gop=0 / weightp=2 / keyint=250 / keyint_min=25 / scenecut=40 / intra_refresh=0 / rc_lookahead=40 / rc=2pass / mbtree=1 / bitrate=4200 / ratetol=1.0 / qcomp=0.60 / qpmin=0 / qpmax=69 / qpstep=4 / cplxblur=20.0 / qblur=0.5 / ip_ratio=1.40 / aq=1:1.00
Language : Russian
Default : Yes
Forced : No

Audio
ID : 2
Format : AC-3
Format/Info : Audio Coding 3
Mode extension : CM (complete main)
Format settings, Endianness : Big
Codec ID : A_AC3
Duration : 1h 20mn
Bit rate mode : Constant
Bit rate : 448 Kbps
Channel(s) : 6 channels
Channel positions : Front: L C R, Side: L R, LFE
Sampling rate : 48.0 KHz
Bit depth : 16 bits
Compression mode : Lossy
Stream size : 258 MiB (10%)
Title : http://firebit.org
Language : Russian
Default : Yes
Forced : No

Text
ID : 3
Format : UTF-8
Codec ID : S_TEXT/UTF8
Codec ID/Info : UTF-8 Plain Text
Title : http://firebit.org
Language : English
Default : Yes
Forced : No

Menu
00:00:00.000 : :Chapter 01
00:00:06.879 : :Chapter 02
00:07:40.000 : :Chapter 03
00:18:30.280 : :Chapter 04
00:27:59.560 : :Chapter 05
00:38:16.640 : :Chapter 06
00:48:13.800 : :Chapter 07
00:58:46.080 : :Chapter 08
01:08:40.920 : :Chapter 09

[align=center]



[/align]



   Похожие торренты   Торрент   Размер 
В этой теме нет новых непрочитанных сообщений. Варвара-краса, длинная коса (1969) BDRip 1080p

73 | 11

4.37 ГБ

В этой теме нет новых непрочитанных сообщений. Варвара-Краса, длинная коса (1969) BDRip-AVC от 0ptimus

55 | 5

2.05 ГБ

В этой теме нет новых непрочитанных сообщений. Варвара-Краса, длинная коса (1969) BDRip от 0ptimus

359 | 26

1.37 ГБ

В этой теме нет новых непрочитанных сообщений. Варвара-краса, длинная коса (1969) Blu-ray

235 | 4

16.6 ГБ

В этой теме нет новых непрочитанных сообщений. Варвара-краса, длинная коса (1969) DVDRip

31 | 6

1.46 ГБ

В этой теме нет новых непрочитанных сообщений. Варвара-краса, длинная коса (1969) DVD9

7 | 3

7.02 ГБ

В этой теме нет новых непрочитанных сообщений. Варвара-Краса, длинная коса (1969) HDRip

422 | 19

744.31 МБ




Вы не можете начинать темы
Вы не можете отвечать на сообщения
Вы не можете редактировать свои сообщения
Вы не можете удалять свои сообщения
Вы не можете добавлять вложения

Перейти:  
Для Мосгорсуда, Роскомнадзора и рекламодателей: mosgorsud-torrent[собачка]yandex.ru
 Вход
ppkBB3cker v.2 © 2008-2014 @ PPK
[ Time : 0.080s | 14 Queries | GZIP : Off ]

Торрент трекер RUTOR.IN, Не можете зайти на rutor.org? Какой новый адрес рутор? Какое зеркало рутор? Не работает rutor.org и зеркала? Тогда наш торрент специально для вас. Rutor.in неофициальное зеркало rutor. В случае если у Вас заблокирован rutor или вдруг Вы не можете на него зайти, то Вы без труда сможете скачать бесплатно и без рекламы последние новинки кино, игр, сериалов и прочего у нас, на Rutor.in. Не нужно использовать прокси, чтобы зайти на рутор, достаточно воспользоваться нашим ресурсом. Все новые фильмы, игры, сериалы, книги и музыка за 2013 и 2014 годы через торрент бесплатно. Скачивайте фильмы в хорошем качестве, игры для пк, xbox, playstation без регистрации. У нас вы найдете новые Зарубежные сериалы и Русские сериалы 2013, 2014, 2015 годов. Оставайтесь с нами, качайте любимые фильмы, игры, сериалы, книги и музыку.