img image001 image001 image001 image001 image001 image001 image001 image001 image001 image001 image001 image001 image001 image001 image001

Planets Sun Sun Sun
Статистика раздачи
Автор: Снежана | Размер: 744.1 МБ | Добавлен: 24 июл 2013
Раздают: 29    Качают: 15
Скачать торрент
Скачать торрент
Описание торрента

СообщениеДобавлено: 24 июл 2013 

#77

Информация о фильме
Название: Первый троллейбус
Год выхода: 1963
Жанр: драма, мелодрама
Режиссер: Исидор Анненский
В ролях: Ирина Губанова, Лев Свердлин, Нина Сазонова, Александр Демьяненко, Дальвин Щербаков, Евгений Ануфриев, Олег Даль, Виктор Борцов, Нина Дорошина, Валентин Брылеев, Михаил Кононов, Алексей Грибов, Георгий Вицин, Муза Крепкогорская, Николай Парфёнов, Валерий Сомов, Петр Савин, Станислав Чекан, Анда Зайце, Валерий Зотов, Герман Качин, Владимир Колокольцев, Михаил Суворов

О фильме:
Заводская молодежь южного городка постоянно ездит на работу в троллейбусе, водитель которого молоденькая и весьма симпатичная Светлана. Все в нее немножко влюблены, и поэтому ребята договариваются, что никто не должен за ней ухаживать.

По настоянию родственников Светлана бросает работу, чтобы поступать в институт, но сразу же чувствует, что в ее жизни не хватает внимания тех, кому она нужна была каждый день. На радость своим постоянным пассажирам, Светлана, решив учиться заочно, возвращается к любимой работе.

Страна: СССР
Продолжительность: 01:22:11
Перевод: Не требуется

Файл
Кодек: XviD / MP3
Качество: DVDRip
Видео: 640x496 (1.29:1), 25 fps, XviD MPEG-4 ~1127 kbps avg
Звук: 48 kHz, MPEG Layer 3, 2 ch, ~128.00 kbps avg

Общее
Полное имя : Perviy_trolleybus_DVDRip_745mb.avi
Формат : AVI
Формат/Информация : Audio Video Interleave
Размер файла : 744 Мбайт
Продолжительность : 1 ч. 22 м.
Общий поток : 1266 Кбит/сек
Программа кодирования : VirtualDubModRus 1.5.10.2 (build 2542/release)
Библиотека кодирования : VirtualDubMod build 2542/release

Видео
Идентификатор : 0
Формат : MPEG-4 Visual
Профиль формата : Advanced Simple@L5
Параметр BVOP формата : 2
Параметр QPel формата : Нет
Параметр GMC формата : Без точки перехода
Параметр матрицы формата : Default (MPEG)
Режим смешивания : Сжатый битовый поток
Идентификатор кодека : XVID
Идентификатор кодека/Подсказка : XviD
Продолжительность : 1 ч. 22 м.
Битрейт : 1128 Кбит/сек
Ширина : 640 пикселей
Высота : 496 пикселей
Соотношение сторон : 1,290
Частота кадров : 25,000 кадров/сек
Цветовое пространство : YUV
Субдискретизация насыщенности : 4:2:0
Битовая глубина : 8 бит
Тип развёртки : Прогрессивная
Метод сжатия : С потерями
Бит/(Пиксели*Кадры) : 0.142
Размер потока : 663 Мбайт (89%)
Библиотека кодирования : XviD 1.2.1 (UTC 2008-12-04)

Аудио
Идентификатор : 1
Формат : MPEG Audio
Версия формата : Version 1
Профиль формата : Layer 3
Идентификатор кодека : 55
Идентификатор кодека/Подсказка : MP3
Продолжительность : 1 ч. 22 м.
Вид битрейта : Постоянный
Битрейт : 128 Кбит/сек
Каналы : 2 канала
Частота : 48,0 КГц
Метод сжатия : С потерями
Размер потока : 75,3 Мбайт (10%)
Выравнивание : Соединение по промежуткам
Продолжительность промежутка : 40 мс. (1,00 видеокадр)
Время предзагрузки промежутка : 504 мс.
Библиотека кодирования : LAME3.97
Настройки программы : -m s -V 4 -q 1 -b 128



   Похожие торренты   Торрент   Размер 
В этой теме нет новых непрочитанных сообщений. Шоковый Коридор (1963) / Shock Corridor (1963) BDRip от HQ-ViDEO

20 | 2

1.46 ГБ

В этой теме нет новых непрочитанных сообщений. Сборник - 5 лучших комедий Георгия Данелия (1963-1986) DVDRip, DVDRip-AVC

45 | 22

7.93 ГБ

В этой теме нет новых непрочитанных сообщений. Сотрудник ЧК (1963) DVDRip

12 | 5

744.57 МБ

В этой теме нет новых непрочитанных сообщений. Хад / Hud (1963) DVDRip - Generalfilm

9 | 26

1.46 ГБ

В этой теме нет новых непрочитанных сообщений. РТ 109 / РТ 109 (1963) DVDRip от NovaLan | A

15 | 16

2.2 ГБ

В этой теме нет новых непрочитанных сообщений. Сотрудник ЧК (1963) DVDRip

8 | 5

1.37 ГБ

В этой теме нет новых непрочитанных сообщений. Деловые люди (1963) DVDRip

407 | 52

1.37 ГБ




Вы не можете начинать темы
Вы не можете отвечать на сообщения
Вы не можете редактировать свои сообщения
Вы не можете удалять свои сообщения
Вы не можете добавлять вложения

Перейти:  
Для Мосгорсуда, Роскомнадзора и рекламодателей: mosgorsud-torrent[собачка]yandex.ru
 Вход
ppkBB3cker v.2 © 2008-2014 @ PPK
[ Time : 0.020s | 16 Queries | GZIP : On ]

Торрент трекер RUTOR.IN, Не можете зайти на rutor.org? Какой новый адрес рутор? Какое зеркало рутор? Не работает rutor.org и зеркала? Тогда наш торрент специально для вас. Rutor.in неофициальное зеркало rutor. В случае если у Вас заблокирован rutor или вдруг Вы не можете на него зайти, то Вы без труда сможете скачать бесплатно и без рекламы последние новинки кино, игр, сериалов и прочего у нас, на Rutor.in. Не нужно использовать прокси, чтобы зайти на рутор, достаточно воспользоваться нашим ресурсом. Все новые фильмы, игры, сериалы, книги и музыка за 2013 и 2014 годы через торрент бесплатно. Скачивайте фильмы в хорошем качестве, игры для пк, xbox, playstation без регистрации. У нас вы найдете новые Зарубежные сериалы и Русские сериалы 2013, 2014, 2015 годов. Оставайтесь с нами, качайте любимые фильмы, игры, сериалы, книги и музыку.