img image001 image001 image001 image001 image001 image001 image001 image001 image001 image001 image001 image001 image001 image001 image001

Planets Sun Sun Sun
Статистика раздачи
Автор: Снежана | Размер: 1.45 ГБ | Добавлен: 24 июл 2013
Раздают: 79    Качают: 12
Скачать торрент
Скачать торрент
Описание торрента

СообщениеДобавлено: 24 июл 2013 

#77
Год выпуска: 1986
Страна: СССР
Студии: Мосфильм

Жанр: фантастика, драма, комедия
Продолжительность: 02:07:26 (1:03:32 + 1:03:54)
Субтитры: русский, английский (отдельно)

Режиссер: Георгий Данелия

В ролях: Станислав Любшин, Леван Габриадзе, Евгений Леонов, Юрий Яковлев, Анатолий Серенко, Ольга Машная, Лев Перфилов, Ирина Шмелёва, Игорь Боголюбов, Валентин Букин, Юрий Воронков, Николай Гаро, Олег Матвеев, Харий Швейц, Валентин Голубенко, Георгий Данелия, Вероника Изотова, Юрий Наумцев, Владимир Разумовский, Нина Русланова, Нина Тер-Осипян, Александра Дорохина, Геннадий Иванов, Олеся Иванова, Игорь Кан, Александр Литовкин, Виктор Маренков, Анатолий Мартынов, Виктор Махмутов, Татьяна Новицкая, Татьяна Перфильева, Людмила Солоденко, Владимир Фёдоров, Валерий Фролова, Галина Данелия-Юркова, Геннадий Ялович...

Описание: Москва, 1980-е годы. В центре города, на Калининском проспекте, босоногий человек в рваном пальто обращается к прохожим со странной просьбой: "Скажите номер вашей планеты в тентуре, или хотя бы номер галактики в спирали". Случайные прохожие, которыми волей судьбы оказались прораб Владимир Николаевич Машков (дядя Вова) и грузинский студент Гедеван (Скрипач), вступают с ним в разговор, в ходе которого незнакомец показывает небольшой прибор - "машинку перемещения". Прораб, считая, что перед ним - сумасшедший, протягивает к "машинке" руку и, несмотря на уверения незнакомца в том, что надо знать, как ей пользоваться, нажимает на ней случайно выбранную кнопку. В ту же секунду дядя Вова и Скрипач оказываются одни - в песчаной пустыне под палящим солнцем. Вначале герои думают, что они попали в Каракумы на Земле, но позже, встретившись с местными жителями, узнают, что оказались в галактике Кин-дза-дза на планете Плюк...





Исходник: DVD9
Тип релиза: DVDRip
Контейнер: AVI

Видео: 704x528 (4:3), 25 fps, XviD MPEG-4 Visual ~ 1496 kbps avg, 0.161 bit/pixel
Аудио: 48 kHz, MP3, 2 ch, 128.00 kbps Русский

Дополнительно: Английские субтитры, Русские субтитры
Общее
Полное имя : Kin-dza-dza!.1986Kin-dza-dza!.1986.DVDRipKin-dza-dza.1986.1s.avi
Формат : AVI
Формат/Информация : Audio Video Interleave
Размер файла : 742 Мбайт
Продолжительность : 1 ч. 3 м.
Общий поток : 1634 Кбит/сек
Программа кодирования : VirtualDubMod 1.5.10.3 | www.virtualdub-fr.org || (build 2550/release)
Библиотека кодирования : VirtualDubMod build 2550/release

Видео
Идентификатор : 0
Формат : MPEG-4 Visual
Профиль формата : Advanced Simple@L5
Параметр BVOP формата : 1
Параметр QPel формата : Нет
Параметр GMC формата : Без точки перехода
Параметр матрицы формата : Выборочная
Идентификатор кодека : XVID
Идентификатор кодека/Подсказка : XviD
Продолжительность : 1 ч. 3 м.
Битрейт : 1496 Кбит/сек
Ширина : 704 пикселя
Высота : 528 пикселей
Соотношение сторон : 4:3
Частота кадров : 25,000 кадров/сек
Цветовое пространство : YUV
Субдискретизация насыщенности : 4:2:0
Битовая глубина : 8 бит
Тип развёртки : Прогрессивная
Метод сжатия : С потерями
Бит/(Пиксели*Кадры) : 0.161
Размер потока : 680 Мбайт (92%)
Библиотека кодирования : XviD 1.2.1 (UTC 2008-12-04)

Аудио
Идентификатор : 1
Формат : MPEG Audio
Версия формата : Version 1
Профиль формата : Layer 3
Идентификатор кодека : 55
Идентификатор кодека/Подсказка : MP3
Продолжительность : 1 ч. 3 м.
Вид битрейта : Постоянный
Битрейт : 128 Кбит/сек
Каналы : 2 канала
Частота : 48,0 КГц
Метод сжатия : С потерями
Размер потока : 58,2 Мбайт (8%)
Выравнивание : Соединение по промежуткам
Продолжительность промежутка : 40 мс. (1,00 видеокадр)
Время предзагрузки промежутка : 504 мс.
Библиотека кодирования : LAME3.99




Раздача от:



   Похожие торренты   Торрент   Размер 
В этой теме нет новых непрочитанных сообщений. Академик Иванов (1986) DVDRip-AVC от Youtracker

6 | 2

120.13 МБ

В этой теме нет новых непрочитанных сообщений. Ловушка для кошек / Macskafogo / Cat City (1986) DVDRip от Youtracker

176 | 9

1.46 ГБ

В этой теме нет новых непрочитанных сообщений. Говард-утка / Howard the Duck (1986) DVDRip от Youtracker | P

141 | 4

1.46 ГБ

В этой теме нет новых непрочитанных сообщений. Говард-утка / Howard the Duck (1986) DVDRip от Youtracker | P

27 | 6

751.15 МБ

В этой теме нет новых непрочитанных сообщений. Кинг Конг жив / King Kong Lives (1986) DVDRip от Youtracker | A

1 | 4

1.46 ГБ

В этой теме нет новых непрочитанных сообщений. Кинг Конг жив / King Kong Lives (1986) DVDRip-AVC от Youtracker | A

12 | 10

1.46 ГБ

В этой теме нет новых непрочитанных сообщений. Кинг Конг жив / King Kong Lives (1986) DVDRip от Youtracker | Ю. Сербин

9 | 2

749.45 МБ




Вы не можете начинать темы
Вы не можете отвечать на сообщения
Вы не можете редактировать свои сообщения
Вы не можете удалять свои сообщения
Вы не можете добавлять вложения

Перейти:  
Для Мосгорсуда, Роскомнадзора и рекламодателей: mosgorsud-torrent[собачка]yandex.ru
 Вход
ppkBB3cker v.2 © 2008-2014 @ PPK
[ Time : 0.049s | 16 Queries | GZIP : Off ]

Торрент трекер RUTOR.IN, Не можете зайти на rutor.org? Какой новый адрес рутор? Какое зеркало рутор? Не работает rutor.org и зеркала? Тогда наш торрент специально для вас. Rutor.in неофициальное зеркало rutor. В случае если у Вас заблокирован rutor или вдруг Вы не можете на него зайти, то Вы без труда сможете скачать бесплатно и без рекламы последние новинки кино, игр, сериалов и прочего у нас, на Rutor.in. Не нужно использовать прокси, чтобы зайти на рутор, достаточно воспользоваться нашим ресурсом. Все новые фильмы, игры, сериалы, книги и музыка за 2013 и 2014 годы через торрент бесплатно. Скачивайте фильмы в хорошем качестве, игры для пк, xbox, playstation без регистрации. У нас вы найдете новые Зарубежные сериалы и Русские сериалы 2013, 2014, 2015 годов. Оставайтесь с нами, качайте любимые фильмы, игры, сериалы, книги и музыку.