img image001 image001 image001 image001 image001 image001 image001 image001 image001 image001 image001 image001 image001 image001 image001

Planets Sun Sun Sun
Статистика раздачи
Автор: Снежана | Размер: 2.25 ГБ | Добавлен: 24 июл 2013
Раздают: 23    Качают: 8
Скачать торрент
Скачать торрент
Описание торрента

СообщениеДобавлено: 24 июл 2013 



«Те, кто не помнят прошлого, обречены переживать его вновь...»
#77
Год выпуска: 2011
Страна: Россия
Студия: Рекун-синема

Жанр: драма, история
Продолжительность: 02:35:39

Перевод: Не требуется
Субтитры: нет

Режиссер: Андрей Смирнов

В ролях: Дарья Екамасова, Нина Русланова, Всеволод Шиловский, Евдокия Германова, Юрий Шевчук, Алексей Серебряков, Алексей Алексеев, Михаил Евланов, Егор Клейменов, Мария Клюквина...

Описание: Псевдоисторический фильм от Андрея Смирнова. История частной жизни одной женщины и четверых ее мужчин. Главная героиня — неграмотная крестьянка, и действие фильма начинается с ее свадьбы в 1909 году, когда девушку из нищей семьи взяли в богатую, а кончается в 1921 году Антоновским восстанием...





Исходник: Blu-Ray
Качество видео: BDRip-AVC
Формат видео: MKV

Видео: 1024x436 (1.35:1), 24 fps, H264 ~ 1618 kbps avg, 0.151 bit/pixel
Аудио: 48 kHz, AC3, 6 ch, ~ 448.00 kbps avg
Общее
Полное имя : Zhila.byla.odna.baba.2011.BDRip-AVC.mkv
Формат : Matroska
Версия формата : Version 2
Размер файла : 2,25 Гбайт
Продолжительность : 2 ч. 35 м.
Общий поток : 2067 Кбит/сек
Название фильма : Zhila.byla.odna.baba.2011.BDRip-AVC
Дата кодирования : UTC 2011-11-24 07:40:21
Программа кодирования : mkvmerge v5.0.1 ('Es ist Sommer') built on Oct 9 2011 11:55:43
Библиотека кодирования : libebml v1.2.2 + libmatroska v1.3.0

Видео
Идентификатор : 1
Формат : AVC
Формат/Информация : Advanced Video Codec
Профиль формата : High@L4.1
Параметр CABAC формата : Да
Параметр ReFrames формата : 11 кадров
Идентификатор кодека : V_MPEG4/ISO/AVC
Продолжительность : 2 ч. 35 м.
Битрейт : 1618 Кбит/сек
Ширина : 1024 пикселя
Высота : 436 пикселей
Соотношение сторон : 2,35:1
Частота кадров : 24,000 кадра/сек
Цветовое пространство : YUV
Субдискретизация насыщенности : 4:2:0
Битовая глубина : 8 бит
Тип развёртки : Прогрессивная
Бит/(Пиксели*Кадры) : 0.151
Размер потока : 1,72 Гбайт (76%)
Заголовок : Источник Blu-ray
Библиотека кодирования : x264 core 114 r1913 5fd3dce
Настройки программы : cabac=1 / ref=11 / deblock=1:-2:-1 / analyse=0x3:0x113 / me=umh / subme=9 / psy=1 / psy_rd=1.00:0.10 / mixed_ref=1 / me_range=32 / chroma_me=1 / trellis=2 / 8x8dct=1 / cqm=0 / deadzone=21,11 / fast_pskip=1 / chroma_qp_offset=-3 / threads=9 / sliced_threads=0 / nr=0 / decimate=1 / interlaced=0 / constrained_intra=0 / bframes=10 / b_pyramid=2 / b_adapt=2 / b_bias=0 / direct=3 / weightb=1 / open_gop=0 / weightp=0 / keyint=250 / keyint_min=23 / scenecut=40 / intra_refresh=0 / rc_lookahead=80 / rc=2pass / mbtree=1 / bitrate=1618 / ratetol=1.0 / qcomp=0.60 / qpmin=0 / qpmax=69 / qpstep=4 / cplxblur=20.0 / qblur=0.5 / ip_ratio=1.40 / aq=2:0.90
Язык : Russian
Default : Да
Forced : Нет

Аудио
Идентификатор : 2
Формат : AC-3
Формат/Информация : Audio Coding 3
Расширение режима : CM (complete main)
Идентификатор кодека : A_AC3
Продолжительность : 2 ч. 35 м.
Вид битрейта : Постоянный
Битрейт : 448 Кбит/сек
Каналы : 6 каналов
Расположение каналов : Front: L C R, Side: L R, LFE
Частота : 48,0 КГц
Битовая глубина : 16 бит
Метод сжатия : С потерями
Размер потока : 499 Мбайт (22%)
Заголовок : Источник Blu-ray
Язык : Russian
Default : Да
Forced : Нет




Раздача от:



   Похожие торренты   Торрент   Размер 
В этой теме нет новых непрочитанных сообщений. Жила-была одна баба (2011) BDRip от ExKinoRay

15 | 6

2.35 ГБ

В этой теме нет новых непрочитанных сообщений. Жила-была одна баба (2011) BDRip 1080p

6 | 3

12.55 ГБ

В этой теме нет новых непрочитанных сообщений. Жила-была одна баба (2011) BDRip 720p

78 | 3

6.1 ГБ

В этой теме нет новых непрочитанных сообщений. Жила-была одна баба (2011) BDRip от HELLYWOOD

3 | 2

2.9 ГБ

В этой теме нет новых непрочитанных сообщений. Жила-была одна баба (2011) BDRip от HQCLUB

3 | 2

2.89 ГБ

В этой теме нет новых непрочитанных сообщений. Жила-была одна баба (2011) Blu-Ray 1080p

2 | 12

22.43 ГБ

В этой теме нет новых непрочитанных сообщений. Жила-была одна баба (2011) HDRip

387 | 12

2.05 ГБ




Вы не можете начинать темы
Вы не можете отвечать на сообщения
Вы не можете редактировать свои сообщения
Вы не можете удалять свои сообщения
Вы не можете добавлять вложения

Перейти:  
Для Мосгорсуда, Роскомнадзора и рекламодателей: mosgorsud-torrent[собачка]yandex.ru
 Вход
ppkBB3cker v.2 © 2008-2014 @ PPK
[ Time : 0.041s | 18 Queries | GZIP : Off ]

cron