img image001 image001 image001 image001 image001 image001 image001 image001 image001 image001 image001 image001 image001 image001 image001

Planets Sun Sun Sun
Статистика раздачи
Автор: Снежана | Размер: 1.46 ГБ | Добавлен: 24 июл 2013
Раздают: 24    Качают: 4
Скачать торрент
Скачать торрент
Описание торрента

СообщениеДобавлено: 24 июл 2013 

#77

Информация о фильме
Название: Солярис
Год выхода: 1968
Жанр: Телеспектакль
Режиссер: Борис Ниренбург
В ролях: Василий Лановой, Владимир Этуш, Антонина Пилюс, Владимир Зозулин

О фильме:
Три человека на планете Солярис оказываются в предельной, нечеловеческой ситуации. Окруженные своими «гостями», они должны решать, что делать. Для доктора Сарториуса главное — долг перед наукой, истиной, которая выше жалости и морали. Снаут гнется под тяжестью обрушившихся на него проблем — научных и нравственных.

По мотивам одноименного романа известного польского писателя Станислава Лема.

Малоизвестный ныне киноматериал, поскольку его полностью заслонил вышедший на несколько лет позже знаменитый фильм Андрея Тарковского (но как знать, не натолкнул ли Тарковского именно этот спектакль на мысль о своем фильме?). Однако, если не сравнивать его со своим знаменитым последователем, то данный телеспектакль - вполне добротно и профессионально сделанная работа с хорошей игрой актеров. Режиссер достаточно близок к авторскому тексту знаменитого романа Лема.



Страна: СССР
Студия: Из собрания Гостелерадиофонда
Продолжительность: 02:22:26

Файл
Кодек: DivX
Качество: DVDRip
Видео: 640x480 (1.33:1), 25 fps, DivX Codec 5.x or 6.x ~1269 kbps avg
Звук: 48 kHz, AC3 Dolby Digital, 2/0 (L,R) ch, ~192.00 kbps avg
Общее
Полное имя : D:VideoSoljaris.1968.DVDRip.avi
Формат : AVI
Формат/Информация : Audio Video Interleave
Размер файла : 1,46 Гбайт
Продолжительность : 2 ч. 22 м.
Общий поток : 1471 Кбит/сек
Программа кодирования : VirtualDubModRus 1.5.10.2 (build 2542/release)
Библиотека кодирования : VirtualDubMod build 2542/release

Видео
Идентификатор : 0
Формат : MPEG-4 Visual
Параметр BVOP формата : 1
Параметр QPel формата : Нет
Параметр GMC формата : Без точки перехода
Параметр матрицы формата : Default (H.263)
Режим смешивания : Сжатый битовый поток
Идентификатор кодека : DX50
Идентификатор кодека/Подсказка : DivX 5
Продолжительность : 2 ч. 22 м.
Битрейт : 1270 Кбит/сек
Ширина : 640 пикселей
Высота : 480 пикселей
Соотношение сторон : 4:3
Частота кадров : 25,000 кадров/сек
Цветовое пространство : YUV
Субдискретизация насыщенности : 4:2:0
Битовая глубина : 8 бит
Тип развёртки : Прогрессивная
Метод сжатия : С потерями
Бит/(Пиксели*Кадры) : 0.165
Размер потока : 1,26 Гбайт (86%)
Библиотека кодирования : DivX 6.8.3-6.8.4 (UTC 2008-06-07)

Аудио
Идентификатор : 1
Формат : AC-3
Формат/Информация : Audio Coding 3
Расширение режима : CM (complete main)
Параметр Endianness формата : Big
Идентификатор кодека : 2000
Продолжительность : 2 ч. 22 м.
Вид битрейта : Постоянный
Битрейт : 192 Кбит/сек
Каналы : 2 канала
Расположение каналов : Front: L R
Частота : 48,0 КГц
Битовая глубина : 16 бит
Метод сжатия : С потерями
Размер потока : 196 Мбайт (13%)
Выравнивание : Соединение по промежуткам
Продолжительность промежутка : 40 мс. (1,00 видеокадр)
Время предзагрузки промежутка : 512 мс.



   Похожие торренты   Торрент   Размер 
В этой теме нет новых непрочитанных сообщений. Солярис (1972) DVDRip-AVC

0 | 1

3.73 ГБ

В этой теме нет новых непрочитанных сообщений. Солярис (1972) DVDRip-AVC

9 | 3

815.02 МБ

В этой теме нет новых непрочитанных сообщений. Солярис / Solaris (2002) DVDRip

298 | 19

1.37 ГБ

В этой теме нет новых непрочитанных сообщений. Солярис (1972) BDRip от New-Team

19 | 22

1.09 ГБ

В этой теме нет новых непрочитанных сообщений. Солярис / Solaris (2002) HDTVRip

18 | 4

1.77 ГБ

В этой теме нет новых непрочитанных сообщений. Солярис (1972) HDRip-AVC от Stalker oK

15 | 6

1.45 ГБ

В этой теме нет новых непрочитанных сообщений. Солярис (1972) BDRip 1080p

68 | 22

11.47 ГБ




Вы не можете начинать темы
Вы не можете отвечать на сообщения
Вы не можете редактировать свои сообщения
Вы не можете удалять свои сообщения
Вы не можете добавлять вложения

Перейти:  
Для Мосгорсуда, Роскомнадзора и рекламодателей: mosgorsud-torrent[собачка]yandex.ru
 Вход
ppkBB3cker v.2 © 2008-2014 @ PPK
[ Time : 0.038s | 14 Queries | GZIP : Off ]

Торрент трекер RUTOR.IN, Не можете зайти на rutor.org? Какой новый адрес рутор? Какое зеркало рутор? Не работает rutor.org и зеркала? Тогда наш торрент специально для вас. Rutor.in неофициальное зеркало rutor. В случае если у Вас заблокирован rutor или вдруг Вы не можете на него зайти, то Вы без труда сможете скачать бесплатно и без рекламы последние новинки кино, игр, сериалов и прочего у нас, на Rutor.in. Не нужно использовать прокси, чтобы зайти на рутор, достаточно воспользоваться нашим ресурсом. Все новые фильмы, игры, сериалы, книги и музыка за 2013 и 2014 годы через торрент бесплатно. Скачивайте фильмы в хорошем качестве, игры для пк, xbox, playstation без регистрации. У нас вы найдете новые Зарубежные сериалы и Русские сериалы 2013, 2014, 2015 годов. Оставайтесь с нами, качайте любимые фильмы, игры, сериалы, книги и музыку.