img image001 image001 image001 image001 image001 image001 image001 image001 image001 image001 image001 image001 image001 image001 image001

Planets Sun Sun Sun
Статистика раздачи
Автор: Снежана | Размер: 745.2 МБ | Добавлен: 24 июл 2013
Раздают: 7    Качают: 4
Скачать торрент
Скачать торрент
Описание торрента

СообщениеДобавлено: 24 июл 2013 

#77

Информация о фильме
Название: Южные ночи
Год выхода: 2012
Жанр: мелодрама, комедия
Режиссер: Валентина Власова
В ролях: Ксения Роменкова, Артем Ткаченко, Алексей Колубков, Екатерина Сахарова, Артем Артемьев, Александр Костелов

О фильме:
Юлия — «городская штучка»: помешана на карьере, живет согласно четкому плану, комфорт — превыше всего.

Ради очередного повышения Юлия отправляется в далекую провинцию. Она должна выкупить землю, на которой разбиты виноградники. Но владелец виноградников, Виктор, категорически не хочет их продавать.

Виктор подвергает Юлю изощренным «сельским испытаниям». Юля, на своих высоченных шпильках, умеет карабкаться по карьерной лестнице. Но сможет ли она преодолеть навозные кучи, залезть на сосну, чтоб позвонить по мобильному, и самостоятельно выловить из моря ужин?

Удастся ли Виктору «укротить строптивую»? И сможет ли Юля ради любви отказаться от всего, что еще вчера составляло смысл ее жизни?


Страна: Россия
Продолжительность: 01:38:20
Перевод: Не требуется

Файл
Кодек: XviD / MP3
Качество: HDRip
Видео: 656x368 (1.78:1), 25 fps, XviD build 65 ~921 kbps avg, 0.15 bit/pixel
Звук: 48 kHz, MPEG Layer 3, 2 ch, ~128.00 kbps avg

Общее
Полное имя : D:Южные ночи_745Южные ночи_745.avi
Формат : AVI
Формат/Информация : Audio Video Interleave
Размер файла : 745 Мбайт
Продолжительность : 1 ч. 38 м.
Общий поток : 1060 Кбит/сек
Программа кодирования : VirtualDubMod 1.5.10.3 | www.virtualdub-fr.org || (build 2550/release)
Библиотека кодирования : VirtualDubMod build 2550/release

Видео
Идентификатор : 0
Формат : MPEG-4 Visual
Профиль формата : Advanced Simple@L5
Параметр BVOP формата : 1
Параметр QPel формата : Нет
Параметр GMC формата : Без точки перехода
Параметр матрицы формата : Выборочная
Идентификатор кодека : XVID
Идентификатор кодека/Подсказка : XviD
Продолжительность : 1 ч. 38 м.
Битрейт : 922 Кбит/сек
Ширина : 656 пикселей
Высота : 368 пикселей
Соотношение сторон : 16:9
Частота кадров : 25,000 кадров/сек
Цветовое пространство : YUV
Субдискретизация насыщенности : 4:2:0
Битовая глубина : 8 бит
Тип развёртки : Прогрессивная
Метод сжатия : С потерями
Бит/(Пиксели*Кадры) : 0.153
Размер потока : 648 Мбайт (87%)
Библиотека кодирования : XviD 65

Аудио
Идентификатор : 1
Формат : MPEG Audio
Версия формата : Version 1
Профиль формата : Layer 3
Идентификатор кодека : 55
Идентификатор кодека/Подсказка : MP3
Продолжительность : 1 ч. 38 м.
Вид битрейта : Постоянный
Битрейт : 128 Кбит/сек
Каналы : 2 канала
Частота : 48,0 КГц
Метод сжатия : С потерями
Размер потока : 90,0 Мбайт (12%)
Выравнивание : Соединение по промежуткам
Продолжительность промежутка : 40 мс. (1,00 видеокадр)
Время предзагрузки промежутка : 504 мс.
Библиотека кодирования : LAME3.98r
Настройки программы : -m s -V 4 -q 0 -lowpass 17 -b 128



   Похожие торренты   Торрент   Размер 
В этой теме нет новых непрочитанных сообщений. Южные ночи (2012) HDRip-AVC

3 | 3

1.47 ГБ

В этой теме нет новых непрочитанных сообщений. Южные ночи (2012) HDRip-AVC

7 | 2

745.47 МБ

В этой теме нет новых непрочитанных сообщений. Южные ночи (2012) HDRip от Scarabey

38 | 11

1.45 ГБ

В этой теме нет новых непрочитанных сообщений. Южные ночи (2012) HDRip от Scarabey

11 | 5

744.97 МБ

В этой теме нет новых непрочитанных сообщений. Южные ночи (2012) Blu-Ray | Лицензия

0 | 4

22.55 ГБ

В этой теме нет новых непрочитанных сообщений. Южные ночи (2012) BDRip от MediaClub | КПК

322 | 9

445.68 МБ

В этой теме нет новых непрочитанных сообщений. Южные ночи (2012) BDRip от HQ-ViDEO

32 | 3

1.46 ГБ




Вы не можете начинать темы
Вы не можете отвечать на сообщения
Вы не можете редактировать свои сообщения
Вы не можете удалять свои сообщения
Вы не можете добавлять вложения

Перейти:  
Для Мосгорсуда, Роскомнадзора и рекламодателей: mosgorsud-torrent[собачка]yandex.ru
 Вход
ppkBB3cker v.2 © 2008-2014 @ PPK
[ Time : 0.047s | 15 Queries | GZIP : Off ]

Торрент трекер RUTOR.IN, Не можете зайти на rutor.org? Какой новый адрес рутор? Какое зеркало рутор? Не работает rutor.org и зеркала? Тогда наш торрент специально для вас. Rutor.in неофициальное зеркало rutor. В случае если у Вас заблокирован rutor или вдруг Вы не можете на него зайти, то Вы без труда сможете скачать бесплатно и без рекламы последние новинки кино, игр, сериалов и прочего у нас, на Rutor.in. Не нужно использовать прокси, чтобы зайти на рутор, достаточно воспользоваться нашим ресурсом. Все новые фильмы, игры, сериалы, книги и музыка за 2013 и 2014 годы через торрент бесплатно. Скачивайте фильмы в хорошем качестве, игры для пк, xbox, playstation без регистрации. У нас вы найдете новые Зарубежные сериалы и Русские сериалы 2013, 2014, 2015 годов. Оставайтесь с нами, качайте любимые фильмы, игры, сериалы, книги и музыку.
cron