img image001 image001 image001 image001 image001 image001 image001 image001 image001 image001 image001 image001 image001 image001 image001

Planets Sun Sun Sun
Статистика раздачи
Автор: Снежана | Размер: 367.47 МБ | Добавлен: 24 июл 2013
Раздают: 2    Качают: 3
Скачать торрент
Скачать торрент
Описание торрента

СообщениеДобавлено: 24 июл 2013 

Пиццевоз

Русское название: Пиццевоз
Жанр: криминальный, драма, короткометражный
Год выпуска: 2011
Продолжительность: 00:29:59

Режиссёр: Антон Сушкевич

В ролях: Геннадий Сушкевич, Настя Резцова, Татьяна Кречетова, Александр Макаров, Наталья Цыплакова, Моника Госсман, Данил Лавренов, Дмитрий Блохин.

Описание:
Рассказ о тринадцатилетнем мальчишке по имени Костик, подрабатывающем развозом пиццы на своем велосипеде.

Правда, работа у героя картины, как выясняется по ходу сюжета, далеко не самая безобидная. И очень скоро он переходит дорогу опасным людям, которые не остановятся ни перед чем, чтобы убрать конкурента.




Качество видео: HDRip
Формат видео: MP4

Видео: 1280x720 (1.25:1), 25 fps, avc1, 1552 Kbps, 0.067 bit/pixel
Аудио: AAC, 44100Hz, 2 ch, 158 Kbps
Код:
Общее
Полное имя : D:ФильмыПиццевозPizzevoz.mp4
Формат : MPEG-4
Профиль формата : Base Media
Идентификатор кодека : isom
Размер файла : 367 Мбайт
Продолжительность : 29 м.
Режим общего битрейта : Переменный
Общий поток : 1713 Кбит/сек
Дата кодирования : UTC 2011-11-21 17:41:36
Дата пометки : UTC 2011-11-22 17:41:48

Видео
Идентификатор : 1
Формат : AVC
Формат/Информация : Advanced Video Codec
Профиль формата : High@L3.1
Параметр CABAC формата : Да
Параметр ReFrames формата : 4 кадра
Идентификатор кодека : avc1
Идентификатор кодека/Информация : Advanced Video Coding
Продолжительность : 29 м.
Битрейт : 1552 Кбит/сек
Максимальный битрейт : 5604 Кбит/сек
Ширина : 1280 пикселей
Высота : 720 пикселей
Соотношение сторон : 16:9
Режим частоты кадров : Постоянный
Частота кадров : 25,000 кадров/сек
Цветовое пространство : YUV
Субдискретизация насыщенности : 4:2:0
Битовая глубина : 8 бит
Тип развёртки : Прогрессивная
Бит/(Пиксели*Кадры) : 0.067
Размер потока : 333 Мбайт (91%)
Библиотека кодирования : Vimeo Encoder
Дата кодирования : UTC 2011-11-21 17:41:36
Дата пометки : UTC 2011-11-21 17:41:41

Аудио
Идентификатор : 2
Формат : AAC
Формат/Информация : Advanced Audio Codec
Профиль формата : LC
Идентификатор кодека : 40
Продолжительность : 29 м.
Вид битрейта : Переменный
Битрейт : 158 Кбит/сек
Максимальный битрейт : 287 Кбит/сек
Каналы : 2 канала
Расположение каналов : Front: L R
Частота : 44,1 КГц
Метод сжатия : С потерями
Размер потока : 33,8 Мбайт (9%)
Дата кодирования : UTC 2011-11-21 17:41:40
Дата пометки : UTC 2011-11-21 17:41:41






   Похожие торренты   Торрент   Размер 
В этой теме нет новых непрочитанных сообщений. Пиццевоз (2011) DVDRip

0 | 3

248.87 МБ

В этой теме нет новых непрочитанных сообщений. Всё хорошо, что хорошо кончается 2011 / All's Well End's Well 2011 / Ji keung hei si 2011 (2011) HDRip от BTT-TEAM

4 | 2

2.05 ГБ

В этой теме нет новых непрочитанных сообщений. Видеоклипы. Еврохит топ - 40 Video Clips [12.02.2011] (2011) HDRip

31 | 17

2.28 ГБ

В этой теме нет новых непрочитанных сообщений. 360 / 360 (2011) HDRip | L2

6 | 1

2.06 ГБ

В этой теме нет новых непрочитанных сообщений. 4 дня в мае (2011) HDRip

36 | 4

1.46 ГБ

В этой теме нет новых непрочитанных сообщений. 360 / 360 (2011) HDRip | L2

36 | 2

1.37 ГБ

В этой теме нет новых непрочитанных сообщений. 360 / 360 (2011) HDRip | L2

7 | 1

710.63 МБ




Вы не можете начинать темы
Вы не можете отвечать на сообщения
Вы не можете редактировать свои сообщения
Вы не можете удалять свои сообщения
Вы не можете добавлять вложения

Перейти:  
Для Мосгорсуда, Роскомнадзора и рекламодателей: mosgorsud-torrent[собачка]yandex.ru
 Вход
ppkBB3cker v.2 © 2008-2014 @ PPK
[ Time : 0.030s | 15 Queries | GZIP : Off ]

Торрент трекер RUTOR.IN, Не можете зайти на rutor.org? Какой новый адрес рутор? Какое зеркало рутор? Не работает rutor.org и зеркала? Тогда наш торрент специально для вас. Rutor.in неофициальное зеркало rutor. В случае если у Вас заблокирован rutor или вдруг Вы не можете на него зайти, то Вы без труда сможете скачать бесплатно и без рекламы последние новинки кино, игр, сериалов и прочего у нас, на Rutor.in. Не нужно использовать прокси, чтобы зайти на рутор, достаточно воспользоваться нашим ресурсом. Все новые фильмы, игры, сериалы, книги и музыка за 2013 и 2014 годы через торрент бесплатно. Скачивайте фильмы в хорошем качестве, игры для пк, xbox, playstation без регистрации. У нас вы найдете новые Зарубежные сериалы и Русские сериалы 2013, 2014, 2015 годов. Оставайтесь с нами, качайте любимые фильмы, игры, сериалы, книги и музыку.