img image001 image001 image001 image001 image001 image001 image001 image001 image001 image001 image001 image001 image001 image001 image001

Planets Sun Sun Sun
Статистика раздачи
Автор: Снежана | Размер: 7.93 ГБ | Добавлен: 24 июл 2013
Раздают: 45    Качают: 22
Скачать торрент
Скачать торрент
Описание торрента

СообщениеДобавлено: 24 июл 2013 

#77

Информация о фильме
Название: Я шагаю по Москве
Год выхода: 1963
Жанр: мелодрама, комедия
Режиссер: Георгий Данелия
В ролях: Алексей Локтев, Никита Михалков, Галина Польских, Евгений Стеблов, Владимир Басов, Ролан Быков, Ирина Мирошниченко, Инна Чурикова, Мария Виноградова, Олег Видов, Лев Дуров, Ирина Скобцева, Любовь Соколова, Валентина Ананьина, Данута Столярская, Арина Алейникова, Геннадий Ялович

О фильме: Володя работает монтажником в Сибири, в Москве он проездом — его небольшой рассказ, опубликованный в журнале «Юность» вызвал интерес у писателя Воронина, пригласившего Володю на важный разговор...

Страна: СССР
Студия: Мосфильм
Продолжительность: 01:13:24



Файл
Кодек: XviD
Качество: DVDRip
Видео: XviD; 720x304 (2.35:1); 2210 Kbps; 25 fps; 0,404 bpp
Звук: AC3; 448 Kbps; CBR; 6 ch
Общее
Полное имя : D:VideoDaneliyaЯ шагаю по Москве.avi
Формат : AVI
Формат/Информация : Audio Video Interleave
Размер файла : 1,37 Гбайт
Продолжительность : 1 ч. 13 м.
Общий поток : 2669 Кбит/сек
Программа кодирования : VirtualDubModRus 1.5.10.2
Библиотека кодирования : VirtualDubMod build 2542/release

Видео
Идентификатор : 0
Формат : MPEG-4 Visual
Профиль формата : Advanced Simple@L5
Параметр BVOP формата : 2
Параметр QPel формата : Нет
Параметр GMC формата : Без точки перехода
Параметр матрицы формата : Default (MPEG)
Режим смешивания : Сжатый битовый поток
Идентификатор кодека : XVID
Идентификатор кодека/Подсказка : XviD
Продолжительность : 1 ч. 13 м.
Битрейт : 2211 Кбит/сек
Ширина : 720 пикселей
Высота : 304 пикселя
Соотношение сторон : 2,35:1
Частота кадров : 25,000 кадров/сек
Цветовое пространство : YUV
Субдискретизация насыщенности : 4:2:0
Битовая глубина : 8 бит
Тип развёртки : Прогрессивная
Метод сжатия : С потерями
Бит/(Пиксели*Кадры) : 0.404
Размер потока : 1,13 Гбайт (83%)
Библиотека кодирования : XviD 1.2.1 (UTC 2008-12-04)

Аудио
Идентификатор : 1
Формат : AC-3
Формат/Информация : Audio Coding 3
Расширение режима : CM (complete main)
Параметр Endianness формата : Big
Идентификатор кодека : 2000
Продолжительность : 1 ч. 13 м.
Вид битрейта : Постоянный
Битрейт : 448 Кбит/сек
Каналы : 6 каналов
Расположение каналов : Front: L C R, Side: L R, LFE
Частота : 48,0 КГц
Битовая глубина : 16 бит
Метод сжатия : С потерями
Размер потока : 235 Мбайт (17%)
Выравнивание : Соединение по промежуткам
Продолжительность промежутка : 40 мс. (1,00 видеокадр)
Время предзагрузки промежутка : 512 мс.



Информация о фильме
Название: Афоня
Год выхода: 1975
Жанр: комедия, драма
Режиссер: Георгий Данелия
В ролях: Леонид Куравлев, Евгения Симонова, Евгений Леонов, Савелий Крамаров, Нина Маслова, Борислав Брондуков, Валентина Талызина, Нина Русланова

О фильме: Весело и беззаботно жил слесарь-сантехник Афанасий. Не гнушался левыми заработками, любил выпить, поволочиться за девушками. Так проходил день за днем, но однажды… О том, что случилось с Афоней, рассказывает фильм признанного мастера комедии Георгия Данелии.

Страна: СССР
Студия: Мосфильм
Продолжительность: 01:27:11



Файл
Кодек: x264
Качество: DVDRip-AVC
Видео: AVC; 716x576 (4:3); 1788 Kbps; 25 fps; 0,173 bpp
Звук: Russian; AC3; 448 Kbps; CBR; 6 ch
Общее
Полное имя : D:VideoDaneliyaАфоня.mkv
Формат : Matroska
Версия формата : Version 2
Размер файла : 1,45 Гбайт
Продолжительность : 1 ч. 27 м.
Общий поток : 2386 Кбит/сек
Название фильма : Афоня
Программа кодирования : mkvmerge v2.9.7
Библиотека кодирования : libebml v0.7.7 + libmatroska v0.8.1
Видео
Идентификатор : 1
Формат : AVC
Формат/Информация : Advanced Video Codec
Профиль формата : High@L3.1
Параметр CABAC формата : Да
Параметр ReFrames формата : 9 кадров
Идентификатор кодека : V_MPEG4/ISO/AVC
Продолжительность : 1 ч. 27 м.
Номинальный битрейт : 1965 Кбит/сек
Ширина : 716 пикселей
Высота : 572 пикселя
Соотношение сторон : 4:3
Частота кадров : 25,000 кадров/сек
Цветовое пространство : YUV
Субдискретизация насыщенности : 4:2:0
Битовая глубина : 8 бит
Тип развёртки : Прогрессивная
Бит/(Пиксели*Кадры) : 0.192
Заголовок : 3 pass x264(High@3.1): 716x572@764x572 25fps 1965.01kb/s
Библиотека кодирования : x264 core 68 r1183M f21daff
Настройки программы : cabac=1 / ref=9 / deblock=1:-2:-1 / analyse=0x3:0x113 / me=umh / subme=9 / psy_rd=0.9:0.1 / mixed_ref=1 / me_range=32 / chroma_me=1 / trellis=2 / 8x8dct=1 / cqm=0 / deadzone=21,11 / chroma_qp_offset=-3 / threads=3 / nr=0 / decimate=1 / mbaff=0 / bframes=7 / b_pyramid=1 / b_adapt=2 / b_bias=0 / direct=3 / wpredb=1 / keyint=250 / keyint_min=25 / scenecut=40 / rc=2pass / bitrate=1965 / ratetol=1.0 / qcomp=0.60 / qpmin=10 / qpmax=51 / qpstep=4 / cplxblur=20.0 / qblur=0.5 / ip_ratio=1.40 / pb_ratio=1.30 / aq=1:1.00
Язык : Russian
Default : Да
Forced : Нет
Коэффициенты матрицы : BT.470-6 System B, BT.470-6 System G, BT.601-6 625, BT.1358 625, BT.1700 625 PAL, BT.1700 625 SECAM, IEC 61966-2-4 601

Аудио #1
Идентификатор : 2
Формат : AAC
Формат/Информация : Advanced Audio Codec
Профиль формата : LC
Идентификатор кодека : A_AAC
Продолжительность : 1 ч. 27 м.
Каналы : 1 канал
Расположение каналов : Front: C
Частота : 48,0 КГц
Метод сжатия : С потерями
Заголовок : Оригинал, AAC-LC 1.0ch 48kHz 130kb/s (q.7)
Язык : Russian
Default : Да
Forced : Нет

Аудио #2
Идентификатор : 3
Формат : AAC
Формат/Информация : Advanced Audio Codec
Профиль формата : LC
Идентификатор кодека : A_AAC
Продолжительность : 1 ч. 27 м.
Каналы : 6 каналов
Расположение каналов : Front: L C R, Side: L R, LFE
Частота : 48,0 КГц
Метод сжатия : С потерями
Заголовок : КП, AAC-LC 5.1ch 48kHz 278kb/s (q.37)
Язык : Russian
Default : Нет
Forced : Нет

Текст
Идентификатор : 4
Формат : UTF-8
Идентификатор кодека : S_TEXT/UTF8
Идентификатор кодека/Информация : UTF-8 Plain Text
Заголовок : srt/utf8
Язык : Bulgarian
Default : Нет
Forced : Нет



Информация о фильме
Название: Мимино
Год выхода: 1977
Жанр: комедия
Режиссер: Георгий Данелия
В ролях: Вахтанг Кикабидзе, Фрунзик Мкртчян, Елена Проклова, Евгений Леонов, Руслан Микаберидзе, Закро Сахвадзе, Марина Дюжева, Арчил Гомиашвили, Валентина Титова, Владимир Басов

О фильме: «Мимино» — по-грузински «сокол». Так называют друзья героя фильма, летчика Валико Мизандари, по воле режиссера то и дело попадающего в смешные, грустные, а порой драматические ситуации.
Работая в родном горном селении, Мимино перевозит на вертолете почту, фрукты, овец. Но он давно мечтает о настоящей, большой авиации. Наконец ему удается воплотить свою мечту в жизнь…


Страна: СССР
Студия: Мосфильм, Грузия-фильм
Продолжительность: 01:31:18



Файл
Кодек: H264
Качество: DVDRip-AVC
Видео: AVC; 720x576 (4:3); 1788 Kbps; 25 fps; 0,173 bpp
Звук: Russian; AC3; 448 Kbps; CBR; 6 ch
Общее
Полное имя : D:VideoDaneliyaМимино.mkv
Формат : Matroska
Версия формата : Version 2
Размер файла : 1,46 Гбайт
Продолжительность : 1 ч. 31 м.
Общий поток : 2282 Кбит/сек
Программа кодирования : mkvmerge v5.2.0
Библиотека кодирования : libebml v1.2.3 + libmatroska v1.3.0

Видео
Идентификатор : 1
Формат : AVC
Формат/Информация : Advanced Video Codec
Профиль формата : High@L4.1
Параметр CABAC формата : Да
Параметр ReFrames формата : 11 кадров
Идентификатор кодека : V_MPEG4/ISO/AVC
Продолжительность : 1 ч. 31 м.
Битрейт : 1833 Кбит/сек
Ширина : 720 пикселей
Высота : 576 пикселей
Соотношение сторон : 4:3
Частота кадров : 25,000 кадров/сек
Стандарт вещания : PAL
Цветовое пространство : YUV
Субдискретизация насыщенности : 4:2:0
Битовая глубина : 8 бит
Тип развёртки : Прогрессивная
Бит/(Пиксели*Кадры) : 0.177
Размер потока : 1,14 Гбайт (78%)
Заголовок : Источник DVD
Библиотека кодирования : x264 core 119 r2106 07efeb4
Настройки программы : cabac=1 / ref=11 / deblock=1:-1:-1 / analyse=0x3:0x113 / me=umh / subme=9 / psy=1 / psy_rd=1.00:0.20 / mixed_ref=1 / me_range=32 / chroma_me=1 / trellis=1 / 8x8dct=1 / cqm=0 / deadzone=21,11 / fast_pskip=0 / chroma_qp_offset=-3 / threads=3 / sliced_threads=0 / nr=0 / decimate=0 / interlaced=0 / bluray_compat=0 / constrained_intra=0 / bframes=8 / b_pyramid=2 / b_adapt=1 / b_bias=0 / direct=3 / weightb=1 / open_gop=0 / weightp=2 / keyint=250 / keyint_min=25 / scenecut=40 / intra_refresh=0 / rc_lookahead=60 / rc=2pass / mbtree=1 / bitrate=1833 / ratetol=1.0 / qcomp=0.60 / qpmin=0 / qpmax=69 / qpstep=4 / cplxblur=20.0 / qblur=0.5 / ip_ratio=1.40 / aq=1:1.00
Язык : Russian
Default : Да
Forced : Нет

Аудио
Идентификатор : 2
Формат : AC-3
Формат/Информация : Audio Coding 3
Расширение режима : CM (complete main)
Параметр Endianness формата : Big
Идентификатор кодека : A_AC3
Продолжительность : 1 ч. 31 м.
Вид битрейта : Постоянный
Битрейт : 448 Кбит/сек
Каналы : 6 каналов
Расположение каналов : Front: L C R, Side: L R, LFE
Частота : 48,0 КГц
Битовая глубина : 16 бит
Метод сжатия : С потерями
Задержка видео : 1 с. 650 мс.
Размер потока : 293 Мбайт (20%)
Заголовок : Источник DVD
Язык : Russian
Default : Да
Forced : Нет



Информация о фильме
Название: Осенний марафон
Год выхода: 1979
Жанр: Трагикомедия
Режиссер: Георгий Данелия
В ролях: Олег Басилашвили, Наталья Гундарева, Евгений Леонов, Марина Неёлова, Николай Крючков, Ольга Богданова, Борислав Брондуков, Владимир Фирсов, Владимир Грамматиков, Людмила Иванова...

О фильме: У талантливого педагога и переводчика Бузыкина нерешительный характер. Он не может оставить жену и уйти к любимой женщине, не может отказать эксплуатирующей его талант сокурснице, терпит посещения доморощенного философа-алкаша, а когда, наконец, решается на смелый шаг — терпит фиаско, так как по природе мягок и податлив, как воск.

Страна: СССР
Студия: Ленфильм
Продолжительность: 01:28:44



Файл
Кодек: DivX
Качество: DVDRip
Видео: DivX 5; 704x528 (4:3); 1902 Kbps; 25 fps; 0,205 bpp
Звук: AC3; 448 Kbps; CBR; 6 ch
Общее
Полное имя : D:VideoDaneliyaОсенний марафон.avi
Формат : AVI
Формат/Информация : Audio Video Interleave
Размер файла : 1,46 Гбайт
Продолжительность : 1 ч. 28 м.
Общий поток : 2361 Кбит/сек
Программа кодирования : VirtualDubModRus 1.5.10.2 (build 2542/release)
Библиотека кодирования : VirtualDubMod build 2542/release

Видео
Идентификатор : 0
Формат : MPEG-4 Visual
Параметр BVOP формата : 1
Параметр QPel формата : Нет
Параметр GMC формата : Без точки перехода
Параметр матрицы формата : Default (H.263)
Режим смешивания : Сжатый битовый поток
Идентификатор кодека : DX50
Идентификатор кодека/Подсказка : DivX 5
Продолжительность : 1 ч. 28 м.
Битрейт : 1903 Кбит/сек
Ширина : 704 пикселя
Высота : 528 пикселей
Соотношение сторон : 4:3
Частота кадров : 25,000 кадров/сек
Цветовое пространство : YUV
Субдискретизация насыщенности : 4:2:0
Битовая глубина : 8 бит
Тип развёртки : Прогрессивная
Метод сжатия : С потерями
Бит/(Пиксели*Кадры) : 0.205
Размер потока : 1,18 Гбайт (81%)
Библиотека кодирования : DivX 6.8.3-6.8.4 (UTC 2008-06-07)

Аудио
Идентификатор : 1
Формат : AC-3
Формат/Информация : Audio Coding 3
Расширение режима : CM (complete main)
Параметр Endianness формата : Big
Идентификатор кодека : 2000
Продолжительность : 1 ч. 28 м.
Вид битрейта : Постоянный
Битрейт : 448 Кбит/сек
Каналы : 6 каналов
Расположение каналов : Front: L C R, Side: L R, LFE
Частота : 48,0 КГц
Битовая глубина : 16 бит
Метод сжатия : С потерями
Размер потока : 284 Мбайт (19%)
Выравнивание : Соединение по промежуткам
Продолжительность промежутка : 40 мс. (1,00 видеокадр)
Время предзагрузки промежутка : 512 мс.



Информация о фильме
Название: Кин-дза-дза!
Год выхода: 1986
Жанр: фантастика, драма, комедия
Режиссер: Георгий Данелия
В ролях: Станислав Любшин, Леван Габриадзе, Евгений Леонов, Юрий Яковлев, Анатолий Серенко, Ольга Машная, Лев Перфилов, Ирина Шмелёва, Игорь Боголюбов, Валентин Букин, Юрий Воронков, Николай Гаро, Олег Матвеев, Харий Швейц, Валентин Голубенко, Георгий Данелия, Вероника Изотова, Юрий Наумцев, Владимир Разумовский, Нина Русланова, Нина Тер-Осипян, Александра Дорохина, Геннадий Иванов, Олеся Иванова...

О фильме: Прораб Владимир Николаевич Машков и не подозревал, что обычный путь до универсама за хлебом и макаронами обернется межгалактическими путешествиями. А все эта встреча со студентом в кроличьей шапке с большой сумкой и с каким-то маленьким устройством — «машинкой перемещения», как он ее сам называл.
Короче, нажал на кнопку — и оказался вместе с молодым человеком в пустыне, и не в каких-нибудь Каракумах, а на планете-пустыне Плюк в тентуре, галактика Кин-дза-дза в спирали…


Страна: СССР
Студия: Мосфильм
Продолжительность: 1:03:32 + 1:03:54



Файл
Кодек: H264
Качество: DVDRip-AVC
Видео: AVC; 704x560 (4:3); 1957 Kbps; 25 fps; 0,199 bpp
Звук: AC3; 448 Kbps; CBR; 6 ch
Общее
Полное имя : D:VideoDaneliyaКин-дза-дза!Kin-dza-dza!.1986.DVDRip-AVC.1s.mkv
Формат : Matroska
Версия формата : Version 2
Размер файла : 1,09 Гбайт
Продолжительность : 1 ч. 3 м.
Общий поток : 2454 Кбит/сек
Программа кодирования : mkvmerge v5.0.1
Библиотека кодирования : libebml v1.2.2 + libmatroska v1.3.0

Видео
Идентификатор : 1
Формат : AVC
Формат/Информация : Advanced Video Codec
Профиль формата : High@L4.1
Параметр CABAC формата : Да
Параметр ReFrames формата : 6 кадров
Идентификатор кодека : V_MPEG4/ISO/AVC
Продолжительность : 1 ч. 3 м.
Битрейт : 2005 Кбит/сек
Ширина : 704 пикселя
Высота : 560 пикселей
Соотношение сторон : 4:3
Соотношение сторон в оригинале : 4:3
Частота кадров : 25,000 кадров/сек
Цветовое пространство : YUV
Субдискретизация насыщенности : 4:2:0
Битовая глубина : 8 бит
Тип развёртки : Прогрессивная
Бит/(Пиксели*Кадры) : 0.203
Размер потока : 890 Мбайт (80%)
Заголовок : Источник DVD
Библиотека кодирования : x264 core 119 r2106 07efeb4
Настройки программы : cabac=1 / ref=6 / deblock=1:-2:-1 / analyse=0x3:0x113 / me=umh / subme=6 / psy=1 / psy_rd=1.00:0.10 / mixed_ref=1 / me_range=32 / chroma_me=1 / trellis=1 / 8x8dct=1 / cqm=0 / deadzone=21,11 / fast_pskip=1 / chroma_qp_offset=-3 / threads=3 / sliced_threads=0 / nr=0 / decimate=1 / interlaced=0 / bluray_compat=0 / constrained_intra=0 / bframes=6 / b_pyramid=2 / b_adapt=1 / b_bias=0 / direct=3 / weightb=1 / open_gop=0 / weightp=0 / keyint=250 / keyint_min=25 / scenecut=40 / intra_refresh=0 / rc_lookahead=60 / rc=2pass / mbtree=1 / bitrate=2005 / ratetol=1.0 / qcomp=0.60 / qpmin=0 / qpmax=69 / qpstep=4 / cplxblur=20.0 / qblur=0.5 / ip_ratio=1.40 / aq=1:1.00
Default : Да
Forced : Нет

Аудио
Идентификатор : 2
Формат : AC-3
Формат/Информация : Audio Coding 3
Расширение режима : CM (complete main)
Параметр Endianness формата : Big
Идентификатор кодека : A_AC3
Продолжительность : 1 ч. 3 м.
Вид битрейта : Постоянный
Битрейт : 448 Кбит/сек
Каналы : 6 каналов
Расположение каналов : Front: L C R, Side: L R, LFE
Частота : 48,0 КГц
Битовая глубина : 16 бит
Метод сжатия : С потерями
Задержка видео : 3 с. 641 мс.
Размер потока : 204 Мбайт (18%)
Заголовок : Источник DVD
Default : Да
Forced : Нет

PS: Огромное спасибо авторам этих рипов



   Похожие торренты   Торрент   Размер 
В этой теме нет новых непрочитанных сообщений. Сборник - 5 лучших комедий Леонида Гайдая [часть 2] (1961-1975) DVDRip, DVDRip-AVC

26 | 13

5.41 ГБ

В этой теме нет новых непрочитанных сообщений. Сборник - 5 лучших комедий Эльдара Рязанова [часть 2] (1956-1971) DVDRip, DVDRip-AVC

7 | 5

7.07 ГБ

В этой теме нет новых непрочитанных сообщений. Сборник - 6 лучших комедий Эльдара Рязанова (1973-1991) DVDRip, BDRip-AVC

11 | 58

11.11 ГБ

В этой теме нет новых непрочитанных сообщений. Сборник - 5 лучших комедий Леонида Гайдая (1967-1982) DVDRip, BDRip-AVC

37 | 29

7.28 ГБ

В этой теме нет новых непрочитанных сообщений. Болек и Лелек / Bolek i Lolek [Сборник] (1963 - 1986) DVDRip, TVRip

39 | 20

16.21 ГБ

В этой теме нет новых непрочитанных сообщений. Сборник мультфильмов Льва Мильчина - Полная коллекция (1963-1986) DVDRip

120 | 17

3.41 ГБ

В этой теме нет новых непрочитанных сообщений. Сборник короткометражных комедий [В. Давыдов и Голиаф, Покушение, Рыпкина любовь] (1985, 1987, 1993) DVDRip

17 | 6

1.09 ГБ




Вы не можете начинать темы
Вы не можете отвечать на сообщения
Вы не можете редактировать свои сообщения
Вы не можете удалять свои сообщения
Вы не можете добавлять вложения

Перейти:  
Для Мосгорсуда, Роскомнадзора и рекламодателей: mosgorsud-torrent[собачка]yandex.ru
 Вход
ppkBB3cker v.2 © 2008-2014 @ PPK
[ Time : 0.025s | 14 Queries | GZIP : Off ]

Торрент трекер RUTOR.IN, Не можете зайти на rutor.org? Какой новый адрес рутор? Какое зеркало рутор? Не работает rutor.org и зеркала? Тогда наш торрент специально для вас. Rutor.in неофициальное зеркало rutor. В случае если у Вас заблокирован rutor или вдруг Вы не можете на него зайти, то Вы без труда сможете скачать бесплатно и без рекламы последние новинки кино, игр, сериалов и прочего у нас, на Rutor.in. Не нужно использовать прокси, чтобы зайти на рутор, достаточно воспользоваться нашим ресурсом. Все новые фильмы, игры, сериалы, книги и музыка за 2013 и 2014 годы через торрент бесплатно. Скачивайте фильмы в хорошем качестве, игры для пк, xbox, playstation без регистрации. У нас вы найдете новые Зарубежные сериалы и Русские сериалы 2013, 2014, 2015 годов. Оставайтесь с нами, качайте любимые фильмы, игры, сериалы, книги и музыку.