img image001 image001 image001 image001 image001 image001 image001 image001 image001 image001 image001 image001 image001 image001 image001

Planets Sun Sun Sun
Статистика раздачи
Автор: Снежана | Размер: 744.48 МБ | Добавлен: 24 июл 2013
Раздают: 78    Качают: 10
Скачать торрент
Скачать торрент
Описание торрента

СообщениеДобавлено: 24 июл 2013 

Цветная верcия, полная реставрация изображения и звука


#77
Год выпуска: 1947
Страна: СССР
Студия: Ленфильм

Жанр: сказка, мюзикл, фэнтези, мелодрама, комедия, семейный
Продолжительность: 01:21:50

Перевод: Не требуется
Субтитры: нет

Режиссер: Надежда Кошеверова, Михаил Шапиро

В ролях: Янина Жеймо, Алексей Консовский, Эраст Гарин, Фаина Раневская, Елена Юнгер, Тамара Сезеневская, Василий Меркурьев, Александр Румнев, Варвара Мясникова, Игорь Клименков...

Описание: Основа сюжета - старинный сказочный мотив о трудолюбивой Золушке, злой мачехе и ленивых сестрах. Разумеется, Шварцем переработанный и оживленный до уровня комедии, в которой есть и просто юмор, и злая сатира. До сих пор этот нежный и добрый фильм продолжает радовать и удивлять больших и маленьких. А вы попробуйте не удивиться тому, что к вам в гости приходит волшебница со своим очаровательным пажом и мановением волшебной палочки превращает ваше рубище в бальное платье, а ваши опорки в хрустальные башмачки. Попробуйте просто и естественно усесться в золоченую тыкву, запряженную мышами, и в этой карете поехать на бал к королю. Попробуйте, наконец, танцевать со сказочным королем и влюбиться в волшебного принца...

Доп. информация
• На роль короля пробовались и Ю. Толубеев, и К. Адашевский — и каждый был по-своему хорош, но лишь в Гарине обнаружилась та мера эксцентрики и задушевности, которая нужна сказке.
• Фаина Раневская во время съёмок очень похудела и, гримируясь, безжалостно обращалась со своим лицом. Подтягивала свой многострадальный нос с помощью кусочков газа и лака, запихивала за щеки комочки ваты. Когда её просили не мучить себя, раздражённо отвечала: «Для актрисы не существует никаких неудобств, если это нужно для роли».
• На момент съёмок Янине Жеймо (Золушка) было 38 лет, Алексею Консовскому (Принц) - 35 лет. Игравший родного отца Золушки Василий Меркурьев всего на пять лет старше Жеймо.





Исходник: Blu-ray disc
Тип релиза: BDRip
Контейнер: AVI

Видео: 656x480 (4:3), 23,976 fps, XviD ~ 1134 kbps avg, 0.150 bit/pixel
Аудио: 48 kHz, MP3, 6 ch, 128.00 kbps
Общее
Полное имя : Zolushka.1947Zolushka.1947.BDRip.745MB.avi
Формат : AVI
Формат/Информация : Audio Video Interleave
Размер файла : 744 Мбайт
Продолжительность : 1 ч. 21 м.
Общий поток : 1272 Кбит/сек
Программа кодирования : VirtualDubMod 1.5.10.3 | www.virtualdub-fr.org || (build 2550/release)
Библиотека кодирования : VirtualDubMod build 2550/release

Видео
Идентификатор : 0
Формат : MPEG-4 Visual
Профиль формата : Advanced Simple@L5
Параметр BVOP формата : 1
Параметр QPel формата : Нет
Параметр GMC формата : Без точки перехода
Параметр матрицы формата : Выборочная
Идентификатор кодека : XVID
Идентификатор кодека/Подсказка : XviD
Продолжительность : 1 ч. 21 м.
Битрейт : 1134 Кбит/сек
Ширина : 656 пикселей
Высота : 480 пикселей
Соотношение сторон : 4:3
Частота кадров : 23,976 кадра/сек
Цветовое пространство : YUV
Субдискретизация насыщенности : 4:2:0
Битовая глубина : 8 бит
Тип развёртки : Прогрессивная
Метод сжатия : С потерями
Бит/(Пиксели*Кадры) : 0.150
Размер потока : 664 Мбайт (89%)
Библиотека кодирования : XviD 64

Аудио
Идентификатор : 1
Формат : MPEG Audio
Версия формата : Version 1
Профиль формата : Layer 3
Идентификатор кодека : 55
Идентификатор кодека/Подсказка : MP3
Продолжительность : 1 ч. 21 м.
Вид битрейта : Постоянный
Битрейт : 128 Кбит/сек
Каналы : 2 канала
Частота : 48,0 КГц
Метод сжатия : С потерями
Размер потока : 74,9 Мбайт (10%)
Выравнивание : Соединение по промежуткам
Продолжительность промежутка : 42 мс. (1,00 видеокадр)
Время предзагрузки промежутка : 504 мс.
Библиотека кодирования : LAME3.99



Раздача от:



   Похожие торренты   Торрент   Размер 
В этой теме нет новых непрочитанных сообщений. Золушка (1947) BDRip от Youtracker | Цветная | Реставрация

712 | 30

1.46 ГБ

В этой теме нет новых непрочитанных сообщений. Золушка (1947) BDRip 1080p от FREEISLAND | Цветная | Реставрация

132 | 14

7.73 ГБ

В этой теме нет новых непрочитанных сообщений. Золушка (1947) BDRip-AVC | Цветная версия. Полная реставрация

0 | 6

1.76 ГБ

В этой теме нет новых непрочитанных сообщений. Золушка (1947) BDRip от HELLYWOOD | Цветная версия. Полная реставрация

107 | 9

1.45 ГБ

В этой теме нет новых непрочитанных сообщений. Золушка (1947) BDRip-AVC от Youtracker | Реставрация

28 | 5

1.46 ГБ

В этой теме нет новых непрочитанных сообщений. Золушка. Цветная версия (1947) BDRip от HQCLUB

31 | 3

1.45 ГБ

В этой теме нет новых непрочитанных сообщений. Золушка. Цветная версия (1947) BDRip 1080 от HDReactor

10 | 7

8.21 ГБ




Вы не можете начинать темы
Вы не можете отвечать на сообщения
Вы не можете редактировать свои сообщения
Вы не можете удалять свои сообщения
Вы не можете добавлять вложения

Перейти:  
Для Мосгорсуда, Роскомнадзора и рекламодателей: mosgorsud-torrent[собачка]yandex.ru
 Вход
ppkBB3cker v.2 © 2008-2014 @ PPK
[ Time : 0.559s | 16 Queries | GZIP : On ]

Торрент трекер RUTOR.IN, Не можете зайти на rutor.org? Какой новый адрес рутор? Какое зеркало рутор? Не работает rutor.org и зеркала? Тогда наш торрент специально для вас. Rutor.in неофициальное зеркало rutor. В случае если у Вас заблокирован rutor или вдруг Вы не можете на него зайти, то Вы без труда сможете скачать бесплатно и без рекламы последние новинки кино, игр, сериалов и прочего у нас, на Rutor.in. Не нужно использовать прокси, чтобы зайти на рутор, достаточно воспользоваться нашим ресурсом. Все новые фильмы, игры, сериалы, книги и музыка за 2013 и 2014 годы через торрент бесплатно. Скачивайте фильмы в хорошем качестве, игры для пк, xbox, playstation без регистрации. У нас вы найдете новые Зарубежные сериалы и Русские сериалы 2013, 2014, 2015 годов. Оставайтесь с нами, качайте любимые фильмы, игры, сериалы, книги и музыку.
cron