img image001 image001 image001 image001 image001 image001 image001 image001 image001 image001 image001 image001 image001 image001 image001

Planets Sun Sun Sun
Статистика раздачи
Автор: Снежана | Размер: 1.46 ГБ | Добавлен: 24 июл 2013
Раздают: 56    Качают: 6
Скачать торрент
Скачать торрент
Описание торрента

СообщениеДобавлено: 24 июл 2013 

#77

Год выпуска: 2009
Страна: Россия
Студия: Vladimir Motyl Studio

Жанр: драма, мелодрама
Продолжительность: 02:06:37

Перевод: не требуется
Субтитры: нет
Оригинальная аудиодорожка: русский

Режиссер: Владимир Мотыль

В ролях: Даниэла Стоянович, Александр Цуркан, Артем Артемьев, Александр Балуев, Анатолий Белый, Евгений Вальц, Александр Василевский, Илья Жданников, Маргарита Иванова, Сергей Кагаков...

Описание: Действие фильма происходит во время Первой мировой войны. Юная киевлянка Ксения Герстель, дочь миллионера-промышленника, остается сиротой — ее отец был убит во время беспорядков, а вскоре Ксения узнает, что на фронте погиб ее жених Саша. Отчаявшись, она поступила в «Красный крест» и ушла сестрой милосердия на передовую, где встретила новую любовь — генерал-майора Ростислава Баторского, человека, который спас ей жизнь и фактически заменил отца, поселив ее после демобилизации в своей квартире в Петрограде.
Одинокий пятидесятитрехлетний генерал влюбляется в Ксению, окружает ее заботой и вниманием и, в конце концов, они становятся мужем и женой. После бесконечных потерь и разочарований, выпавших на ее долю, Ксения обретает веру в будущее, мечтает о большой счастливой семье, о детях. Но революция 1917 года повергает Россию в пучину кровавого хаоса, и надеждам Ксении не суждено сбыться…...







Исходник: Blu-ray 1080p
Качество: BDRip
Формат: AVI

Видео: 720x400 (16:9), 23.976 fps, XviD MPEG-4 ~1254 kbps avg, 0.182 bit/pixel
Аудио: 48 kHz, AC3 Dolby Digital, 3/2 (L,C,R,l,r) + LFE ch, 384 kbps

Дополнительно: Звук в Blu-ray исходнике так себе, по спектру всего 19 кгц, поэтому понизил звук для того, чтобы оставить больше места под видео. Звук делался с DTS XD MA исходника.

Раздача от:

Общее
Полное имя : Bagrovyi.tsvet.snegopada.2009.O.BDRip.1.46GB_[Youtracker]_by_avproh.avi
Формат : AVI
Формат/Информация : Audio Video Interleave
Размер файла : 1,46 Гбайт
Продолжительность : 2 ч. 6 м.
Общий поток : 1647 Кбит/сек
Программа кодирования : VirtualDubMod 1.5.10.3 (build 2550/release)
Библиотека кодирования : VirtualDubMod build 2550/release

Видео
Идентификатор : 0
Формат : MPEG-4 Visual
Профиль формата : Advanced Simple@L5
Параметр BVOP формата : 1
Параметр QPel формата : Нет
Параметр GMC формата : Без точки перехода
Параметр матрицы формата : Выборочная
Идентификатор кодека : XVID
Идентификатор кодека/Подсказка : XviD
Продолжительность : 2 ч. 6 м.
Битрейт : 1254 Кбит/сек
Ширина : 720 пикселей
Высота : 400 пикселей
Соотношение сторон : 16:9
Частота кадров : 23,976 кадра/сек
Цветовое пространство : YUV
Субдискретизация насыщенности : 4:2:0
Битовая глубина : 8 бит
Тип развёртки : Прогрессивная
Метод сжатия : С потерями
Бит/(Пиксели*Кадры) : 0.182
Размер потока : 1,11 Гбайт (76%)
Библиотека кодирования : XviD 65

Аудио
Идентификатор : 1
Формат : AC-3
Формат/Информация : Audio Coding 3
Расширение режима : CM (complete main)
Параметр Endianness формата : Big
Идентификатор кодека : 2000
Продолжительность : 2 ч. 6 м.
Вид битрейта : Постоянный
Битрейт : 384 Кбит/сек
Каналы : 6 каналов
Расположение каналов : Front: L C R, Side: L R, LFE
Частота : 48,0 КГц
Битовая глубина : 16 бит
Метод сжатия : С потерями
Размер потока : 348 Мбайт (23%)
Выравнивание : Разделение по промежуткам
Продолжительность промежутка : 42 мс. (1,00 видеокадр)
Время предзагрузки промежутка : 500 мс.





   Похожие торренты   Торрент   Размер 
В этой теме нет новых непрочитанных сообщений. Багровый цвет снегопада (2009) BDRip от Youtracker

9 | 1

2.19 ГБ

В этой теме нет новых непрочитанных сообщений. Багровый цвет снегопада (2009) DVD9 от Youtracker | лицензия

6 | 4

7.08 ГБ

В этой теме нет новых непрочитанных сообщений. Багровый цвет снегопада (2009) BDRip от HQCLUB | Лицензия

196 | 23

2.18 ГБ

В этой теме нет новых непрочитанных сообщений. Багровый цвет снегопада (2009) BDRip 720p от HDClub

25 | 5

7.22 ГБ

В этой теме нет новых непрочитанных сообщений. Багровый цвет снегопада (2009) BDRip 1080р | Лицензия

45 | 11

14.06 ГБ

В этой теме нет новых непрочитанных сообщений. Багровый цвет снегопада (2009) BDRip-AVC от Тorrent-Хzona

5 | 2

1.94 ГБ

В этой теме нет новых непрочитанных сообщений. Багровый цвет снегопада (2009) DVDRip от Шкипер

63 | 7

747.86 МБ




Вы не можете начинать темы
Вы не можете отвечать на сообщения
Вы не можете редактировать свои сообщения
Вы не можете удалять свои сообщения
Вы не можете добавлять вложения

Перейти:  
Для Мосгорсуда, Роскомнадзора и рекламодателей: mosgorsud-torrent[собачка]yandex.ru
 Вход
ppkBB3cker v.2 © 2008-2014 @ PPK
[ Time : 0.026s | 14 Queries | GZIP : Off ]

Торрент трекер RUTOR.IN, Не можете зайти на rutor.org? Какой новый адрес рутор? Какое зеркало рутор? Не работает rutor.org и зеркала? Тогда наш торрент специально для вас. Rutor.in неофициальное зеркало rutor. В случае если у Вас заблокирован rutor или вдруг Вы не можете на него зайти, то Вы без труда сможете скачать бесплатно и без рекламы последние новинки кино, игр, сериалов и прочего у нас, на Rutor.in. Не нужно использовать прокси, чтобы зайти на рутор, достаточно воспользоваться нашим ресурсом. Все новые фильмы, игры, сериалы, книги и музыка за 2013 и 2014 годы через торрент бесплатно. Скачивайте фильмы в хорошем качестве, игры для пк, xbox, playstation без регистрации. У нас вы найдете новые Зарубежные сериалы и Русские сериалы 2013, 2014, 2015 годов. Оставайтесь с нами, качайте любимые фильмы, игры, сериалы, книги и музыку.