img image001 image001 image001 image001 image001 image001 image001 image001 image001 image001 image001 image001 image001 image001 image001

Planets Sun Sun Sun
Статистика раздачи
Автор: Снежана | Размер: 2.19 ГБ | Добавлен: 24 июл 2013
Раздают: 9    Качают: 6
Скачать торрент
Скачать торрент
Описание торрента

СообщениеДобавлено: 24 июл 2013 


Год выпуска: 1996
Жанр: лирическая комедия
Продолжительность: 01:51:50
Режиссер: Эльдар Рязанов
В ролях: Вячеслав Полунин, Татьяна Друбич, Татьяна Догилева, Борис Щербаков, Александр Ширвиндт, Ольга Волкова, Вячеслав Кулаков, Александр Пашутин, Андрей Смоляков, Сергей Степанченко, Анатолий Руденко, Руслан Ахметов, Алексей Булдаков, Эльдар Рязанов, Ян Цапник, Павел Лебешев, Агриппина Стеклова
Описание:
В многомиллионном городе встретились два человека и с первого взгляда почувствовали необъяснимое притяжение друг к другу, обычно называемое любовью. Комедия с героем-неудачником и слепнущей героиней — история абсолютно чистая и трогательная, без политики, крови, насилия. Суть ее сводится к простой формуле: все мы — родные, все мы обречены встречаться друг с другом снова и снова. И чем больше любви и тепла мы отдадим сегодня тому, кто рядом, тем светлее и радостней будет следующая встреча.





Качество: DVDRip
Формат: AVI
Видео: 704x528 (1.33:1), 25 fps, XviD build 65 ~2348 kbps avg, 0.25 bit/pixel
Аудио: 48 kHz, AC3 Dolby Digital, 3/2 (L,C,R,l,r) + LFE ch, 448.00 kbps avg


Complete name : Privet.duralei.1996.DVDRip.XviD_2.19_Olu6ka.avi
Format : AVI
Format/Info : Audio Video Interleave
Format profile : OpenDML
File size : 2.19 GiB
Duration : 1h 51mn
Overall bit rate : 2 803 Kbps
Writing application : FairUse Wizard
Copyright : Olu6ka
Video
ID : 0
Format : MPEG-4 Visual
Format profile : Advanced Simple@L5
Format settings, BVOP : Yes
Format settings, QPel : No
Format settings, GMC : No warppoints
Format settings, Matrix : Custom
Codec ID : XVID
Codec ID/Hint : XviD
Duration : 1h 51mn
Bit rate : 2 343 Kbps
Width : 704 pixels
Height : 528 pixels
Display aspect ratio : 4:3
Frame rate : 25.000 fps
Color space : YUV
Chroma subsampling : 4:2:0
Bit depth : 8 bits
Scan type : Progressive
Bits/(Pixel*Frame) : 0.252
Stream size : 1.83 GiB (84%)
Writing library : XviD 65
Audio
ID : 1
Format : AC-3
Format/Info : Audio Coding 3
Mode extension : CM (complete main)
Codec ID : 2000
Duration : 1h 51mn
Bit rate mode : Constant
Bit rate : 448 Kbps
Channel(s) : 5 channels
Channel positions : Front: L C R, Side: L R
Sampling rate : 48.0 KHz
Bit depth : 16 bits
Stream size : 358 MiB (16%)
Alignment : Split accross interleaves
Interleave, duration : 40 ms (1.00 video frame)
Interleave, preload duration : 500 ms






Раздача от:



   Похожие торренты   Торрент   Размер 
В этой теме нет новых непрочитанных сообщений. Привет, дуралеи! (1996) DVDRip - LOOK

252 | 7

1.38 ГБ

В этой теме нет новых непрочитанных сообщений. Привет, дуралеи! (1996) DVDRip-AVC от ExKinoRay

181 | 32

2.32 ГБ

В этой теме нет новых непрочитанных сообщений. Привет от Катюши [01-04 из 04] (2013) DVDRip от Youtracker | лицензия

118 | 11

3.29 ГБ

В этой теме нет новых непрочитанных сообщений. Привет от Катюши [01-04 из 04] (2013) DVDRip-AVC от Youtracker | лицензия

21 | 9

3.29 ГБ

В этой теме нет новых непрочитанных сообщений. Привет, Фриско, Привет / Hello Frisco, Hello (1943) DVDRip | SATKUR

10 | 6

1.46 ГБ

В этой теме нет новых непрочитанных сообщений. Привет от Катюши [01-04 из 04] (2013) DVD9 R5 от Youtracker | лицензия

4 | 2

7.7 ГБ

В этой теме нет новых непрочитанных сообщений. Дон Кихот возвращается (1996) DVDRip от Youtracker

1 | 2

745.07 МБ




Вы не можете начинать темы
Вы не можете отвечать на сообщения
Вы не можете редактировать свои сообщения
Вы не можете удалять свои сообщения
Вы не можете добавлять вложения

Перейти:  
Для Мосгорсуда, Роскомнадзора и рекламодателей: mosgorsud-torrent[собачка]yandex.ru
 Вход
ppkBB3cker v.2 © 2008-2014 @ PPK
[ Time : 0.034s | 14 Queries | GZIP : On ]

Торрент трекер RUTOR.IN, Не можете зайти на rutor.org? Какой новый адрес рутор? Какое зеркало рутор? Не работает rutor.org и зеркала? Тогда наш торрент специально для вас. Rutor.in неофициальное зеркало rutor. В случае если у Вас заблокирован rutor или вдруг Вы не можете на него зайти, то Вы без труда сможете скачать бесплатно и без рекламы последние новинки кино, игр, сериалов и прочего у нас, на Rutor.in. Не нужно использовать прокси, чтобы зайти на рутор, достаточно воспользоваться нашим ресурсом. Все новые фильмы, игры, сериалы, книги и музыка за 2013 и 2014 годы через торрент бесплатно. Скачивайте фильмы в хорошем качестве, игры для пк, xbox, playstation без регистрации. У нас вы найдете новые Зарубежные сериалы и Русские сериалы 2013, 2014, 2015 годов. Оставайтесь с нами, качайте любимые фильмы, игры, сериалы, книги и музыку.