img image001 image001 image001 image001 image001 image001 image001 image001 image001 image001 image001 image001 image001 image001 image001

Planets Sun Sun Sun
Статистика раздачи
Автор: Снежана | Размер: 1.09 ГБ | Добавлен: 24 июл 2013
Раздают: 45    Качают: 7
Скачать торрент
Скачать торрент
Описание торрента

СообщениеДобавлено: 24 июл 2013 

#77

Жанр: драма, мелодрама
Год выпуска: 1970
Продолжительность: 01:12:39

Режиссер: Михаил Богин

В ролях: Виктория Фёдорова, Сергей Дрейден, Элеонора Шашкова, Владимир Тихонов, Олег Янковский, Валентин Гафт, Биби Андерсон, Геннадий Мастеров, Станислав Чуркин, Игорь Комаров, Екатерина Богина, Людмила (Мила) Васютинская, Дима Савенков



Описание:
Фильм - размышление о любви. Героиня картины, умная, привлекательная женщина, работает скульптором в Эрмитаже, занимаясь реставрацией в Царскосельском дворце. Вокруг неё много приятных и симпатичных людей. Они ходят на работу, встречаются, здороваются, пьют молоко во время обеда, ходят гулять, ведут разговоры о том, что дворец будет отреставрирован, а их имена никто и знать не будет. Вокруг все любят друг друга, а она всё ждёт любви, ждёт настоящего чувства, отказываясь от случайных встреч и возможного замужества...





Исходник: DVD5
Тип релиза: DVDRip
Контейнер: AVI

Видео: 688x384 (1.79:1), 25 fps, XviD MPEG-4 ~1953 kbps avg, 0.29 bit/pixel
Аудио: 48 kHz, AC3 Dolby Digital, 2/0 (L,R) ch, ~192 kbps






Complete name : O.Lubvi.DVDRip.XviD.AC3_Olu6ka.avi
Format : AVI
Format/Info : Audio Video Interleave
File size : 1.09 GiB
Duration : 1h 12mn
Overall bit rate : 2 156 Kbps
Movie name : O.Lubvi.DVDRip.XviD.AC3_Olu6ka
Writing application : FairUse Wizard

Video
ID : 0
Format : MPEG-4 Visual
Format profile : Advanced Simple@L5
Format settings, BVOP : Yes
Format settings, QPel : No
Format settings, GMC : No warppoints
Format settings, Matrix : Custom
Codec ID : XVID
Codec ID/Hint : XviD
Duration : 1h 12mn
Bit rate : 1 954 Kbps
Width : 688 pixels
Height : 384 pixels
Display aspect ratio : 16:9
Frame rate : 25.000 fps
Color space : YUV
Chroma subsampling : 4:2:0
Bit depth : 8 bits
Scan type : Progressive
Bits/(Pixel*Frame) : 0.296
Stream size : 1 016 MiB (91%)
Writing library : XviD 65

Audio
ID : 1
Format : AC-3
Format/Info : Audio Coding 3
Mode extension : CM (complete main)
Codec ID : 2000
Duration : 1h 12mn
Bit rate mode : Constant
Bit rate : 192 Kbps
Channel(s) : 2 channels
Channel positions : Front: L R
Sampling rate : 48.0 KHz
Bit depth : 16 bits
Stream size : 99.8 MiB (9%)
Alignment : Split accross interleaves
Interleave, duration : 40 ms (1.00 video frame)
Interleave, preload duration : 500 ms

Раздача от:



   Похожие торренты   Торрент   Размер 
В этой теме нет новых непрочитанных сообщений. Шведская история любви / En kärlekshistoria (1970) DVDRip-AVC

33 | 3

1.9 ГБ

В этой теме нет новых непрочитанных сообщений. Умереть от любви / Mourir d'aimer (1970) DVDRip | L1, Sub

153 | 18

1.41 ГБ

В этой теме нет новых непрочитанных сообщений. История любви / Love Story (1970) DVDRip

40 | 3

1.37 ГБ

В этой теме нет новых непрочитанных сообщений. Шведская история любви / En kärlekshistoria (1970) DVDRip

742 | 28

1.99 ГБ

В этой теме нет новых непрочитанных сообщений. Шведская история любви / En kärlekshistoria (1970) DVDRip

28 | 8

1.46 ГБ

В этой теме нет новых непрочитанных сообщений. Бег (1970) DVDRip-AVC от Youtracker

11 | 3

2.18 ГБ

В этой теме нет новых непрочитанных сообщений. Бег (1970) DVDRip от Youtracker

27 | 2

1.46 ГБ




Вы не можете начинать темы
Вы не можете отвечать на сообщения
Вы не можете редактировать свои сообщения
Вы не можете удалять свои сообщения
Вы не можете добавлять вложения

Перейти:  
Для Мосгорсуда, Роскомнадзора и рекламодателей: mosgorsud-torrent[собачка]yandex.ru
 Вход
ppkBB3cker v.2 © 2008-2014 @ PPK
[ Time : 0.516s | 15 Queries | GZIP : Off ]

Торрент трекер RUTOR.IN, Не можете зайти на rutor.org? Какой новый адрес рутор? Какое зеркало рутор? Не работает rutor.org и зеркала? Тогда наш торрент специально для вас. Rutor.in неофициальное зеркало rutor. В случае если у Вас заблокирован rutor или вдруг Вы не можете на него зайти, то Вы без труда сможете скачать бесплатно и без рекламы последние новинки кино, игр, сериалов и прочего у нас, на Rutor.in. Не нужно использовать прокси, чтобы зайти на рутор, достаточно воспользоваться нашим ресурсом. Все новые фильмы, игры, сериалы, книги и музыка за 2013 и 2014 годы через торрент бесплатно. Скачивайте фильмы в хорошем качестве, игры для пк, xbox, playstation без регистрации. У нас вы найдете новые Зарубежные сериалы и Русские сериалы 2013, 2014, 2015 годов. Оставайтесь с нами, качайте любимые фильмы, игры, сериалы, книги и музыку.
cron