img image001 image001 image001 image001 image001 image001 image001 image001 image001 image001 image001 image001 image001 image001 image001

Planets Sun Sun Sun
Статистика раздачи
Автор: Снежана | Размер: 1.4 ГБ | Добавлен: 24 июл 2013
Раздают: 11    Качают: 3
Скачать торрент
Скачать торрент
Описание торрента

СообщениеДобавлено: 24 июл 2013 


Год выпуска: 2009
Жанр: криминал, приключения
Страна: Россия, Украина
Выпущено:"А-1 КИНО ВИДЕО" при участии Одесской киностудии

Продолжительность: 01:16:31


Режиссер: Алексей Луканев
В ролях: Алексей Горбунов, Екатерина Маликова, Артем Осипов, Евгения Трофимова, Эммануил Виторган, Константин Крюков, Григорий Сиятвинда, Георгий Поволоцкий...

Описание:
Одесский воротила Марфела шантажом заставляет приезжего парня Никиту взяться за работу, которую считает сплошным удовольствием: нужно скомпрометировать его жену, чтобы Марфела мог развестись и без потерь единолично унаследовать миллиарды своего умирающего брата. Никита соблазняет женщину, но получает от нее встречное предложение: Елена просит убить тирана-мужа. Марфела тоже требует ликвидации коварной жены. Оба супруга осыпают Никиту угрозами, не ведая, что он вовсе не тот, за кого себя выдаёт…




Исходник: pistolet.stradivari.2009.x264.HDTV.(1080p)
Тип релиза: HDTVRip
Контейнер: AVI
Видео: 720x400 (1.80:1), 25 fps, XviD build 65 ~2394 kbps avg, 0.33 bit/pixel
Аудио: 48 kHz, AC3 Dolby Digital, 2/0 (L,R) ch, ~224 kbps




Complete name : Pistolet.stradivari.2009.HDTV.(1080p)_Olu6ka.avi
Format : AVI
Format/Info : Audio Video Interleave
File size : 1.40 GiB
Duration : 1h 16mn
Overall bit rate : 2 629 Kbps
Writing application : VirtualDubMod 1.5.10.3 | (build 2550/release)
Writing library : VirtualDubMod build 2550/release
Video
ID : 0
Format : MPEG-4 Visual
Format profile : Advanced Simple@L5
Format settings, BVOP : Yes
Format settings, QPel : No
Format settings, GMC : No warppoints
Format settings, Matrix : Custom
Codec ID : XVID
Codec ID/Hint : XviD
Duration : 1h 16mn
Bit rate : 2 395 Kbps
Width : 720 pixels
Height : 400 pixels
Display aspect ratio : 16:9
Frame rate : 25.000 fps
Color space : YUV
Chroma subsampling : 4:2:0
Bit depth : 8 bits
Scan type : Progressive
Bits/(Pixel*Frame) : 0.333
Stream size : 1.28 GiB (91%)
Writing library : XviD 65
Audio
ID : 1
Format : AC-3
Format/Info : Audio Coding 3
Mode extension : CM (complete main)
Codec ID : 2000
Duration : 1h 16mn
Bit rate mode : Constant
Bit rate : 224 Kbps
Channel(s) : 2 channels
Channel positions : Front: L R
Sampling rate : 48.0 KHz
Bit depth : 16 bits
Stream size : 122 MiB (9%)
Alignment : Split accross interleaves
Interleave, duration : 40 ms (1.00 video frame)
Interleave, preload duration : 500 ms

Раздача от:



   Похожие торренты   Торрент   Размер 
В этой теме нет новых непрочитанных сообщений. Пистолет Страдивари (2009) HDTV 1080p от RG MixTorrent

3 | 2

1.7 ГБ

В этой теме нет новых непрочитанных сообщений. Пистолет Страдивари (2011) SATRip

4 | 9

938.68 МБ

В этой теме нет новых непрочитанных сообщений. Пистолет Страдивари (2011) DVDRip

2 | 24

1.57 ГБ

В этой теме нет новых непрочитанных сообщений. Оружие ХХ века. Пистолет Маузер (2009) IPTVRip от RiperAM

1 | 2

146.91 МБ

В этой теме нет новых непрочитанных сообщений. Оружие ХХ века. Пистолет-пулемёт (2009) IPTVRip от RiperAM

2 | 2

150.16 МБ

В этой теме нет новых непрочитанных сообщений. Страдивари / Stradivari (1988) DVDRip | P

69 | 10

1.36 ГБ

В этой теме нет новых непрочитанных сообщений. Голый пистолет / The Naked Gun: From the Files of Police Squad! (1988) HDTVRip-AVC | P2, А

75 | 7

749.26 МБ




Вы не можете начинать темы
Вы не можете отвечать на сообщения
Вы не можете редактировать свои сообщения
Вы не можете удалять свои сообщения
Вы не можете добавлять вложения

Перейти:  
Для Мосгорсуда, Роскомнадзора и рекламодателей: mosgorsud-torrent[собачка]yandex.ru
 Вход
ppkBB3cker v.2 © 2008-2014 @ PPK
[ Time : 0.059s | 15 Queries | GZIP : Off ]

cron