img image001 image001 image001 image001 image001 image001 image001 image001 image001 image001 image001 image001 image001 image001 image001

Planets Sun Sun Sun
Статистика раздачи
Автор: Снежана | Размер: 743.89 МБ | Добавлен: 24 июл 2013
Раздают: 2    Качают: 5
Скачать торрент
Скачать торрент
Описание торрента

СообщениеДобавлено: 24 июл 2013 

#77
Страна: Россия
Год выпуска: 2010
Жанр: боевик, мелодрама
Продолжительность: 01:27:31

Режиссёр: Евгений Малков

В ролях: Владимир Вдовиченков, Ольга Филиппова, Михаил Долгинин, Наталья Бурмистрова, Кира Кауфман, Дарья Чудакова, Ирина Бокалова, Рина Гришина, Владислав Комаров, Виктор Мелихов и др.

Описание: В глухой деревне в далёком лесу стоит церковь. Служит в ней отец Алексий, прислуживает — служка — Демидов — странный человек, физически очень сильный, ещё не старый, замкнутый, молчаливый, нелюдимый — единственный человек с кем он общается — отец Алексий и его жена Ольга. Демидов и священник спорят о жизни, о Боге, о том, позволительно ли убийство по необходимости — например, на войне. Священник уверяет Демидова в том, что грех убийства — всегда грех — война ли, мир ли — грех убийца берёт на себя в любом случае — даже если ему пришлось убивать «за правое дело».
Выясняется, что Демидов — бывший воин-интернационалист, уже ему-то приходилось убивать, и не раз. Теперь он мучается неразрешимым для себя вопросом — простить себя, забыть всё, что видел и пережил на войне или все это было страшным грехом.
В деревне появляется несколько женщин — все они молоды, красивы, все они скрываются от бандитов. Женщины — действительно бежали от бандитов, которые захватили их для того, чтобы переправить в публичные дома на Восток. Бандиты преследуют беглянок и выходят к деревне, и Демидову приходится делать выбор — снова проливать кровь или остаться «непогрешимым».





Исходник: DVD5 R5
Качество видео: DVDRip
Формат видео: AVI

Видео: 672x368 (16:9), 25 fps, XviD ~ 1040 kbps avg, 0.168 bit/pixel
Аудио: 48 kHz, MP3, 2 ch, ~ 128.00 kbps avg

Раздача от:
Общее
Полное имя : Iskuplenie.2010Iskuplenie.2010.DVDRip.745MB.avi
Формат : AVI
Формат/Информация : Audio Video Interleave
Размер файла : 744 Мбайт
Продолжительность : 1 ч. 28 м.
Общий поток : 1176 Кбит/сек
Программа кодирования : VirtualDubModRus 1.5.10.2 (build 2542/release)
Библиотека кодирования : VirtualDubMod build 2542/release

Видео
Идентификатор : 0
Формат : MPEG-4 Visual
Профиль формата : Advanced Simple@L5
Параметр BVOP формата : 1
Параметр QPel формата : Нет
Параметр GMC формата : Без точки перехода
Параметр матрицы формата : Выборочная
Идентификатор кодека : XVID
Идентификатор кодека/Подсказка : XviD
Продолжительность : 1 ч. 28 м.
Битрейт : 1040 Кбит/сек
Ширина : 672 пикселя
Высота : 368 пикселей
Соотношение сторон : 16:9
Частота кадров : 25,000 кадров/сек
Цветовое пространство : YUV
Субдискретизация насыщенности : 4:2:0
Битовая глубина : 8 бит
Тип развёртки : Прогрессивная
Метод сжатия : С потерями
Бит/(Пиксели*Кадры) : 0.168
Размер потока : 658 Мбайт (88%)
Библиотека кодирования : XviD 64

Аудио
Идентификатор : 1
Формат : MPEG Audio
Версия формата : Version 1
Профиль формата : Layer 3
Режим : Joint stereo
Расширение режима : MS Stereo
Идентификатор кодека : 55
Идентификатор кодека/Подсказка : MP3
Продолжительность : 1 ч. 27 м.
Вид битрейта : Постоянный
Битрейт : 128 Кбит/сек
Каналы : 2 канала
Частота : 48,0 КГц
Метод сжатия : С потерями
Размер потока : 80,1 Мбайт (11%)
Выравнивание : Соединение по промежуткам
Продолжительность промежутка : 40 мс. (1,01 видеокадр)
Время предзагрузки промежутка : 504 мс.
Библиотека кодирования : LAME







   Похожие торренты   Торрент   Размер 
В этой теме нет новых непрочитанных сообщений. Искупление (2010) DVDRip-AVC от Youtracker

13 | 3

1.45 ГБ

В этой теме нет новых непрочитанных сообщений. Искупление (2010) DVDRip от Youtracker

18 | 7

1.45 ГБ

В этой теме нет новых непрочитанных сообщений. Искупление (2010) DVD5 от Youtracker | лицензия

7 | 4

4.13 ГБ

В этой теме нет новых непрочитанных сообщений. Неоспоримый 3: Искупление / Undisputed III: Redemption (2010) BDRip 1080p

179 | 26

5.77 ГБ

В этой теме нет новых непрочитанных сообщений. Искупление (2012) DVDRip

63 | 8

1.47 ГБ

В этой теме нет новых непрочитанных сообщений. Искупление (2012) DVDRip | Лицензия

75 | 5

2.05 ГБ

В этой теме нет новых непрочитанных сообщений. Искупление / Redemption (2011) DVDRip

5 | 3

1.55 ГБ




Вы не можете начинать темы
Вы не можете отвечать на сообщения
Вы не можете редактировать свои сообщения
Вы не можете удалять свои сообщения
Вы не можете добавлять вложения

Перейти:  
Для Мосгорсуда, Роскомнадзора и рекламодателей: mosgorsud-torrent[собачка]yandex.ru
 Вход
ppkBB3cker v.2 © 2008-2014 @ PPK
[ Time : 0.550s | 15 Queries | GZIP : Off ]

Торрент трекер RUTOR.IN, Не можете зайти на rutor.org? Какой новый адрес рутор? Какое зеркало рутор? Не работает rutor.org и зеркала? Тогда наш торрент специально для вас. Rutor.in неофициальное зеркало rutor. В случае если у Вас заблокирован rutor или вдруг Вы не можете на него зайти, то Вы без труда сможете скачать бесплатно и без рекламы последние новинки кино, игр, сериалов и прочего у нас, на Rutor.in. Не нужно использовать прокси, чтобы зайти на рутор, достаточно воспользоваться нашим ресурсом. Все новые фильмы, игры, сериалы, книги и музыка за 2013 и 2014 годы через торрент бесплатно. Скачивайте фильмы в хорошем качестве, игры для пк, xbox, playstation без регистрации. У нас вы найдете новые Зарубежные сериалы и Русские сериалы 2013, 2014, 2015 годов. Оставайтесь с нами, качайте любимые фильмы, игры, сериалы, книги и музыку.
cron