img image001 image001 image001 image001 image001 image001 image001 image001 image001 image001 image001 image001 image001 image001 image001

Planets Sun Sun Sun
Статистика раздачи
Автор: Снежана | Размер: 1.45 ГБ | Добавлен: 24 июл 2013
Раздают: 18    Качают: 7
Скачать торрент
Скачать торрент
Описание торрента

СообщениеДобавлено: 24 июл 2013 

#77
Страна: Россия
Год выпуска: 2010
Жанр: боевик, мелодрама
Продолжительность: 01:27:31

Режиссёр: Евгений Малков

В ролях: Владимир Вдовиченков, Ольга Филиппова, Михаил Долгинин, Наталья Бурмистрова, Кира Кауфман, Дарья Чудакова, Ирина Бокалова, Рина Гришина, Владислав Комаров, Виктор Мелихов и др.

Описание: В глухой деревне в далёком лесу стоит церковь. Служит в ней отец Алексий, прислуживает — служка — Демидов — странный человек, физически очень сильный, ещё не старый, замкнутый, молчаливый, нелюдимый — единственный человек с кем он общается — отец Алексий и его жена Ольга. Демидов и священник спорят о жизни, о Боге, о том, позволительно ли убийство по необходимости — например, на войне. Священник уверяет Демидова в том, что грех убийства — всегда грех — война ли, мир ли — грех убийца берёт на себя в любом случае — даже если ему пришлось убивать «за правое дело».
Выясняется, что Демидов — бывший воин-интернационалист, уже ему-то приходилось убивать, и не раз. Теперь он мучается неразрешимым для себя вопросом — простить себя, забыть всё, что видел и пережил на войне или все это было страшным грехом.
В деревне появляется несколько женщин — все они молоды, красивы, все они скрываются от бандитов. Женщины — действительно бежали от бандитов, которые захватили их для того, чтобы переправить в публичные дома на Восток. Бандиты преследуют беглянок и выходят к деревне, и Демидову приходится делать выбор — снова проливать кровь или остаться «непогрешимым».





Исходник: DVD5 R5
Качество видео: DVDRip
Формат видео: AVI

Видео: 720x400 (16:9), 25 fps, XviD ~ 1900 kbps avg, 0.264 bit/pixel
Аудио: 48 kHz, AC3, 6 ch, ~ 448.00 kbps avg

Раздача от:
Общее
Полное имя : Iskuplenie.2010Iskuplenie.2010.DVDRip.avi
Формат : AVI
Формат/Информация : Audio Video Interleave
Размер файла : 1,45 Гбайт
Продолжительность : 1 ч. 28 м.
Общий поток : 2353 Кбит/сек
Программа кодирования : VirtualDubMod 1.5.10.3 | www.virtualdub-fr.org || (build 2550/release)
Библиотека кодирования : VirtualDubMod build 2550/release

Видео
Идентификатор : 0
Формат : MPEG-4 Visual
Профиль формата : Advanced Simple@L5
Параметр BVOP формата : 1
Параметр QPel формата : Нет
Параметр GMC формата : Без точки перехода
Параметр матрицы формата : Выборочная
Идентификатор кодека : XVID
Идентификатор кодека/Подсказка : XviD
Продолжительность : 1 ч. 28 м.
Битрейт : 1900 Кбит/сек
Ширина : 720 пикселей
Высота : 400 пикселей
Соотношение сторон : 16:9
Частота кадров : 25,000 кадров/сек
Цветовое пространство : YUV
Субдискретизация насыщенности : 4:2:0
Битовая глубина : 8 бит
Тип развёртки : Прогрессивная
Метод сжатия : С потерями
Бит/(Пиксели*Кадры) : 0.264
Размер потока : 1,17 Гбайт (81%)
Библиотека кодирования : XviD 64

Аудио
Идентификатор : 1
Формат : AC-3
Формат/Информация : Audio Coding 3
Расширение режима : CM (complete main)
Идентификатор кодека : 2000
Продолжительность : 1 ч. 27 м.
Вид битрейта : Постоянный
Битрейт : 448 Кбит/сек
Каналы : 6 каналов
Расположение каналов : Front: L C R, Side: L R, LFE
Частота : 48,0 КГц
Битовая глубина : 16 бит
Метод сжатия : С потерями
Размер потока : 280 Мбайт (19%)
Выравнивание : Разделение по промежуткам
Продолжительность промежутка : 40 мс. (1,01 видеокадр)
Время предзагрузки промежутка : 500 мс





   Похожие торренты   Торрент   Размер 
В этой теме нет новых непрочитанных сообщений. Искупление (2010) DVDRip-AVC от Youtracker

13 | 3

1.45 ГБ

В этой теме нет новых непрочитанных сообщений. Искупление (2010) DVDRip от Youtracker

2 | 5

743.89 МБ

В этой теме нет новых непрочитанных сообщений. Искупление (2010) DVD5 от Youtracker | лицензия

7 | 4

4.13 ГБ

В этой теме нет новых непрочитанных сообщений. Неоспоримый 3: Искупление / Undisputed III: Redemption (2010) BDRip 1080p

179 | 26

5.77 ГБ

В этой теме нет новых непрочитанных сообщений. Искупление (2012) DVDRip

63 | 8

1.47 ГБ

В этой теме нет новых непрочитанных сообщений. Искупление / Redemption (2011) DVDRip

5 | 3

1.55 ГБ

В этой теме нет новых непрочитанных сообщений. Искупление (2012) DVDRip | Лицензия

75 | 5

2.05 ГБ




Вы не можете начинать темы
Вы не можете отвечать на сообщения
Вы не можете редактировать свои сообщения
Вы не можете удалять свои сообщения
Вы не можете добавлять вложения

Перейти:  
Для Мосгорсуда, Роскомнадзора и рекламодателей: mosgorsud-torrent[собачка]yandex.ru
 Вход
ppkBB3cker v.2 © 2008-2014 @ PPK
[ Time : 0.072s | 15 Queries | GZIP : Off ]

Торрент трекер RUTOR.IN, Не можете зайти на rutor.org? Какой новый адрес рутор? Какое зеркало рутор? Не работает rutor.org и зеркала? Тогда наш торрент специально для вас. Rutor.in неофициальное зеркало rutor. В случае если у Вас заблокирован rutor или вдруг Вы не можете на него зайти, то Вы без труда сможете скачать бесплатно и без рекламы последние новинки кино, игр, сериалов и прочего у нас, на Rutor.in. Не нужно использовать прокси, чтобы зайти на рутор, достаточно воспользоваться нашим ресурсом. Все новые фильмы, игры, сериалы, книги и музыка за 2013 и 2014 годы через торрент бесплатно. Скачивайте фильмы в хорошем качестве, игры для пк, xbox, playstation без регистрации. У нас вы найдете новые Зарубежные сериалы и Русские сериалы 2013, 2014, 2015 годов. Оставайтесь с нами, качайте любимые фильмы, игры, сериалы, книги и музыку.