img image001 image001 image001 image001 image001 image001 image001 image001 image001 image001 image001 image001 image001 image001 image001

Planets Sun Sun Sun
Статистика раздачи
Автор: Снежана | Размер: 1.45 ГБ | Добавлен: 24 июл 2013
Раздают: 13    Качают: 3
Скачать торрент
Скачать торрент
Описание торрента

СообщениеДобавлено: 24 июл 2013 

#77
Страна: Россия
Год выпуска: 2010
Жанр: боевик, мелодрама
Продолжительность: 01:27:31

Режиссёр: Евгений Малков

В ролях: Владимир Вдовиченков, Ольга Филиппова, Михаил Долгинин, Наталья Бурмистрова, Кира Кауфман, Дарья Чудакова, Ирина Бокалова, Рина Гришина, Владислав Комаров, Виктор Мелихов и др.

Описание: В глухой деревне в далёком лесу стоит церковь. Служит в ней отец Алексий, прислуживает — служка — Демидов — странный человек, физически очень сильный, ещё не старый, замкнутый, молчаливый, нелюдимый — единственный человек с кем он общается — отец Алексий и его жена Ольга. Демидов и священник спорят о жизни, о Боге, о том, позволительно ли убийство по необходимости — например, на войне. Священник уверяет Демидова в том, что грех убийства — всегда грех — война ли, мир ли — грех убийца берёт на себя в любом случае — даже если ему пришлось убивать «за правое дело».
Выясняется, что Демидов — бывший воин-интернационалист, уже ему-то приходилось убивать, и не раз. Теперь он мучается неразрешимым для себя вопросом — простить себя, забыть всё, что видел и пережил на войне или все это было страшным грехом.
В деревне появляется несколько женщин — все они молоды, красивы, все они скрываются от бандитов. Женщины — действительно бежали от бандитов, которые захватили их для того, чтобы переправить в публичные дома на Восток. Бандиты преследуют беглянок и выходят к деревне, и Демидову приходится делать выбор — снова проливать кровь или остаться «непогрешимым».





Исходник: DVD5 R5
Качество видео: DVDRip-AVC
Формат видео: MKV

Видео: 720x568@1008x568 (16:9), 25 fps, H264 ~ 1907 kbps avg, 0.187 bit/pixel
Аудио: 48 kHz, AC3, 6 ch, ~ 448.00 kbps avg

Раздача от:
Общее
Полное имя : Iskuplenie.2010Iskuplenie.2010.DVDRip-AVC.mkv
Формат : Matroska
Версия формата : Version 2
Размер файла : 1,45 Гбайт
Продолжительность : 1 ч. 28 м.
Общий поток : 2351 Кбит/сек
Название фильма : Iskuplenie.2010.DVDRip-AVC AVP Studio
Дата кодирования : UTC 2012-03-24 15:16:03
Программа кодирования : mkvmerge v5.2.0 ('I can't explain') built on Dec 18 2011 18:12:03
Библиотека кодирования : libebml v1.2.3 + libmatroska v1.3.0

Видео
Идентификатор : 1
Формат : AVC
Формат/Информация : Advanced Video Codec
Профиль формата : High@L4.1
Параметр CABAC формата : Да
Параметр ReFrames формата : 6 кадров
Идентификатор кодека : V_MPEG4/ISO/AVC
Продолжительность : 1 ч. 28 м.
Битрейт : 1907 Кбит/сек
Ширина : 720 пикселей
Высота : 568 пикселей
Соотношение сторон : 16:9
Соотношение сторон в оригинале : 16:9
Частота кадров : 25,000 кадров/сек
Цветовое пространство : YUV
Субдискретизация насыщенности : 4:2:0
Битовая глубина : 8 бит
Тип развёртки : Прогрессивная
Бит/(Пиксели*Кадры) : 0.187
Размер потока : 1,15 Гбайт (79%)
Заголовок : Источник DVD
Библиотека кодирования : x264 core 119 r2106 07efeb4
Настройки программы : cabac=1 / ref=6 / deblock=1:-2:-1 / analyse=0x3:0x113 / me=umh / subme=9 / psy=1 / psy_rd=1.00:0.10 / mixed_ref=1 / me_range=32 / chroma_me=1 / trellis=1 / 8x8dct=1 / cqm=0 / deadzone=21,11 / fast_pskip=1 / chroma_qp_offset=-3 / threads=3 / sliced_threads=0 / nr=0 / decimate=1 / interlaced=0 / bluray_compat=0 / constrained_intra=0 / bframes=6 / b_pyramid=2 / b_adapt=1 / b_bias=0 / direct=3 / weightb=1 / open_gop=0 / weightp=0 / keyint=250 / keyint_min=25 / scenecut=40 / intra_refresh=0 / rc_lookahead=60 / rc=2pass / mbtree=1 / bitrate=1907 / ratetol=1.0 / qcomp=0.60 / qpmin=0 / qpmax=69 / qpstep=4 / cplxblur=20.0 / qblur=0.5 / ip_ratio=1.40 / aq=1:1.00
Язык : Russian
Default : Да
Forced : Нет

Аудио
Идентификатор : 2
Формат : AC-3
Формат/Информация : Audio Coding 3
Расширение режима : CM (complete main)
Идентификатор кодека : A_AC3
Продолжительность : 1 ч. 28 м.
Вид битрейта : Постоянный
Битрейт : 448 Кбит/сек
Каналы : 6 каналов
Расположение каналов : Front: L C R, Side: L R, LFE
Частота : 48,0 КГц
Битовая глубина : 16 бит
Метод сжатия : С потерями
Размер потока : 283 Мбайт (19%)
Заголовок : Источник DVD
Язык : Russian
Default : Да
Forced : Нет

Меню
00:00:00.000 : ru:00:00:00.000000000
00:05:00.000 : :00:05:00.000000000
00:10:00.000 : :00:10:00.000000000
00:15:00.000 : :00:15:00.000000000
00:20:00.000 : :00:20:00.000000000
00:25:00.000 : :00:25:00.000000000
00:30:00.000 : :00:30:00.000000000
00:35:00.000 : :00:35:00.000000000
00:40:00.000 : :00:40:00.000000000
00:45:00.000 : :00:45:00.000000000
00:50:00.000 : :00:50:00.000000000
00:55:00.000 : :00:55:00.000000000
01:00:00.000 : :01:00:00.000000000
01:05:00.000 : :01:05:00.000000000
01:10:00.000 : :01:10:00.000000000
01:15:00.000 : :01:15:00.000000000
01:20:00.000 : :01:20:00.000000000
01:25:00.000 : :01:25:00.000000000





   Похожие торренты   Торрент   Размер 
В этой теме нет новых непрочитанных сообщений. Искупление (2010) DVDRip от Youtracker

2 | 5

743.89 МБ

В этой теме нет новых непрочитанных сообщений. Искупление (2010) DVDRip от Youtracker

18 | 7

1.45 ГБ

В этой теме нет новых непрочитанных сообщений. Искупление (2010) DVD5 от Youtracker | лицензия

7 | 4

4.13 ГБ

В этой теме нет новых непрочитанных сообщений. Неоспоримый 3: Искупление / Undisputed III: Redemption (2010) BDRip 1080p

179 | 26

5.77 ГБ

В этой теме нет новых непрочитанных сообщений. Искупление (2012) DVDRip

63 | 8

1.47 ГБ

В этой теме нет новых непрочитанных сообщений. Искупление (2012) DVDRip | Лицензия

75 | 5

2.05 ГБ

В этой теме нет новых непрочитанных сообщений. Искупление / Redemption (2011) DVDRip

5 | 3

1.55 ГБ




Вы не можете начинать темы
Вы не можете отвечать на сообщения
Вы не можете редактировать свои сообщения
Вы не можете удалять свои сообщения
Вы не можете добавлять вложения

Перейти:  
Для Мосгорсуда, Роскомнадзора и рекламодателей: mosgorsud-torrent[собачка]yandex.ru
 Вход
ppkBB3cker v.2 © 2008-2014 @ PPK
[ Time : 0.569s | 14 Queries | GZIP : On ]

Торрент трекер RUTOR.IN, Не можете зайти на rutor.org? Какой новый адрес рутор? Какое зеркало рутор? Не работает rutor.org и зеркала? Тогда наш торрент специально для вас. Rutor.in неофициальное зеркало rutor. В случае если у Вас заблокирован rutor или вдруг Вы не можете на него зайти, то Вы без труда сможете скачать бесплатно и без рекламы последние новинки кино, игр, сериалов и прочего у нас, на Rutor.in. Не нужно использовать прокси, чтобы зайти на рутор, достаточно воспользоваться нашим ресурсом. Все новые фильмы, игры, сериалы, книги и музыка за 2013 и 2014 годы через торрент бесплатно. Скачивайте фильмы в хорошем качестве, игры для пк, xbox, playstation без регистрации. У нас вы найдете новые Зарубежные сериалы и Русские сериалы 2013, 2014, 2015 годов. Оставайтесь с нами, качайте любимые фильмы, игры, сериалы, книги и музыку.