img image001 image001 image001 image001 image001 image001 image001 image001 image001 image001 image001 image001 image001 image001 image001

Planets Sun Sun Sun
Статистика раздачи
Автор: Снежана | Размер: 2.71 ГБ | Добавлен: 24 июл 2013
Раздают: 6    Качают: 3
Скачать торрент
Скачать торрент
Описание торрента

СообщениеДобавлено: 24 июл 2013 

#77

Крушение империи

Информация о фильме
Год выхода: 1970
Производство: СССР
Жанр: Историко-революционный, Советское кино
Режиссер: Владимир Корш-Саблин
В ролях: Николай Ерёменко (старший), Зинаида Кириенко, Евгений Самойлов, Анатолий Соловьёв, Тамара Коновалова, Андрей Вертоградов, Владимир Белокуров, Леонид (Алексей) Кмит, Владислав Стржельчик, Сергей Карнович-Валуа, Алексей Грибов, Николай Крюков (II), Виктор Тарасов, Павел Панков, Владимир Балашов, Федор Никитин, Кузьма Кулаков, В. Маков, Дмитрий Масанов, Феликс Эйнас, С. Говор-Бондаренко, Борис Клюев, Михаил Волков, Михаил Васильев, Олег Марусев
Язык: Русский (оригинал)



1917 год. Канун Октябрьской революции. Возвратившийся в Петербург из ссылки большевик Ваулин, несмотря на преследования полиции, включается в революционную борьбу...
Последний фильм известного белорусского режиссера Владимира Корш-Саблина.



Информация о файле:
Качество: DVB
Видеоконтейнер: MPG
Продолжительность: 01:32:59
Размер: 2,71 гб
Видео: MPEG Video, 720x576 (4:3), 25,000 кадров/сек, 3969 Кбит/сек
Звук: MPEG Audio, 48,0 КГц, 128 Кбит/сек, Моно
Благодарность: ItarTass
Общее
Полное имя : E:TorrentКрушение империиКрушение империи.mpg
Формат : MPEG-PS
Размер файла : 2,71 Гбайт
Продолжительность : 1 ч. 32 м.
Режим общего битрейта : Переменный
Общий поток : 4180 Кбит/сек
Видео
Идентификатор : 224 (0xE0)
Формат : MPEG Video
Версия формата : Version 2
Профиль формата : Main@Main
Параметр BVOP формата : Да
Параметр матрицы формата : Выборочная
Продолжительность : 1 ч. 32 м.
Вид битрейта : Переменный
Битрейт : 3969 Кбит/сек
Максимальный битрейт : 15,0 Мбит/сек
Ширина : 720 пикселей
Высота : 576 пикселей
Соотношение сторон : 4:3
Частота кадров : 25,000 кадров/сек
Стандарт вещания : PAL
Цветовое пространство : YUV
Субдискретизация насыщенности : 4:2:0
Битовая глубина : 8 бит
Тип развёртки : Чересстрочная
Порядок развёртки : Верхнее поле первое
Метод сжатия : С потерями
Бит/(Пиксели*Кадры) : 0.383
Размер потока : 2,58 Гбайт (95%)
Аудио
Идентификатор : 192 (0xC0)
Формат : MPEG Audio
Версия формата : Version 1
Профиль формата : Layer 2
Продолжительность : 1 ч. 32 м.
Вид битрейта : Постоянный
Битрейт : 128 Кбит/сек
Каналы : 1 канал
Частота : 48,0 КГц
Метод сжатия : С потерями
Размер потока : 85,1 Мбайт (3%)

Скриншоты (клик - увеличить):




   Похожие торренты   Торрент   Размер 
В этой теме нет новых непрочитанных сообщений. BBC: Древний Рим. Расцвет и крушение империи / BBC: Ancient Rome. The Rise and Fall of an Empire (2006) DVDRip

183 | 5

4.37 ГБ

В этой теме нет новых непрочитанных сообщений. Discovery: Час Икс: Крушение "Эстонии" / Час Ч: Крушение "Эстонии" / Zero Hour: The Sinking of the Estonia (2007) SATRip

50 | 5

379.44 МБ

В этой теме нет новых непрочитанных сообщений. Каннамский блюз / Каннам 1970 / Gangnam 1970 (2014) HDRip | L2

18 | 3

1.46 ГБ

В этой теме нет новых непрочитанных сообщений. Каннамский блюз (Каннам 1970-го) / Gangnam 1970 (2014) BDRip 720p от MediaClub | L, L2

15 | 4

5.78 ГБ

В этой теме нет новых непрочитанных сообщений. Каннамский блюз / Каннам 1970 / Gangnam 1970 (2014) BDRemux 1080p | А | Полная версия

4 | 0

19.63 ГБ

В этой теме нет новых непрочитанных сообщений. Каннамский блюз / Каннам 1970 / Gangnam 1970 (2014) BDRip 720p | А | Полная версия

2 | 0

6.19 ГБ

В этой теме нет новых непрочитанных сообщений. Крушение / Sub Down (1997) VHSRip | A

0 | 4

1.45 ГБ




Вы не можете начинать темы
Вы не можете отвечать на сообщения
Вы не можете редактировать свои сообщения
Вы не можете удалять свои сообщения
Вы не можете добавлять вложения

Перейти:  
Для Мосгорсуда, Роскомнадзора и рекламодателей: mosgorsud-torrent[собачка]yandex.ru
 Вход
ppkBB3cker v.2 © 2008-2014 @ PPK
[ Time : 0.041s | 15 Queries | GZIP : Off ]

Торрент трекер RUTOR.IN, Не можете зайти на rutor.org? Какой новый адрес рутор? Какое зеркало рутор? Не работает rutor.org и зеркала? Тогда наш торрент специально для вас. Rutor.in неофициальное зеркало rutor. В случае если у Вас заблокирован rutor или вдруг Вы не можете на него зайти, то Вы без труда сможете скачать бесплатно и без рекламы последние новинки кино, игр, сериалов и прочего у нас, на Rutor.in. Не нужно использовать прокси, чтобы зайти на рутор, достаточно воспользоваться нашим ресурсом. Все новые фильмы, игры, сериалы, книги и музыка за 2013 и 2014 годы через торрент бесплатно. Скачивайте фильмы в хорошем качестве, игры для пк, xbox, playstation без регистрации. У нас вы найдете новые Зарубежные сериалы и Русские сериалы 2013, 2014, 2015 годов. Оставайтесь с нами, качайте любимые фильмы, игры, сериалы, книги и музыку.