img image001 image001 image001 image001 image001 image001 image001 image001 image001 image001 image001 image001 image001 image001 image001

Planets Sun Sun Sun
Статистика раздачи
Автор: Снежана | Размер: 743.34 МБ | Добавлен: 24 июл 2013
Раздают: 60    Качают: 2
Скачать торрент
Скачать торрент
Описание торрента

СообщениеДобавлено: 24 июл 2013 

#77
Год выпуска: 1970
Страна: СССР
Студии: ЭТО ("Мосфильм", "Ленфильм")

Жанр: боевик, драма, мелодрама, комедия, приключения, военный
Продолжительность: 01:20:06
Субтитры: русский

Режиссер: Владимир Мотыль

В ролях: Анатолий Кузнецов, Павел Луспекаев, Спартак Мишулин, Кахи Кавсадзе, Раиса Куркина, Николай Годовиков, Татьяна Федотова, Муса Дудаев, Николай Бадьев, Владимир Кадочников, Галина Лучай, Алла Лименес, Татьяна Кричевская, Яков Ленц, Татьяна Ткач, Александр Массарский, Игорь Милонов, Лидия Смирнова, Светлана Сливинская, Зинаида Рахматова, Татьяна Денисова, Велта Деглав, Ираклий Нижарадзе, Яков Базелян, Галина Дашевская, Галина Умпелева, Надежда Румянцева (голос Гюльчатай)...

Описание: Двадцатые годы прошлого века, Туркестан, гражданская война. "Классовые сражения на сегодняшний день в общем и целом завершены", и красноармеец Закаспийского интернационального революционного пролетарского имени товарища Августа Бебеля полка Федор Сухов возвращается на родину, к любезной жене Катерине Матвеевне. Он идет домой пешком через пустыню, направляясь к берегу Каспийского моря и по пути сочиняя письма жене. В дороге приключаются с Суховым разные истории: то местному аборигену Саиду надо помочь - выкопать из раскаленного песка, куда его бандит Джавдет по уши закопал, то взять на себя руководство гаремом некоего Черного Абдуллы, за бандой которого гоняется по пескам красный командир Рахимов. Абдулла решил уйти за границу, а гарем пустить в расход. Рахимов гарем отбил, Абдуллу упустил. Чтобы поймать Абдуллу, надо освободиться от забот о гареме. И Рахимов спихивает барышень на Сухова: тот должен довести женщин в целости и сохранности до Педжента...





Исходник: DVD9 R5
Тип релиза: DVDRip
Контейнер: AVI

Видео: 640x480 (4:3), 25 fps, XviD ~ 1160 kbps avg, 0.151 bit/pixel
Аудио: 48 kHz, MP3, 2 ch, 128.00 kbps
Дополнительно: Английские субтитры Русские субтитры
Общее
Полное имя : Beloe.solnce.pustyni.1970Beloe.solnce.pustyni.DVDRip.745.avi
Формат : AVI
Формат/Информация : Audio Video Interleave
Размер файла : 743 Мбайт
Продолжительность : 1 ч. 20 м.
Общий поток : 1297 Кбит/сек
Программа кодирования : VirtualDubMod 1.5.10.3 | www.virtualdub-fr.org || (build 2550/release)
Библиотека кодирования : VirtualDubMod build 2550/release

Видео
Идентификатор : 0
Формат : MPEG-4 Visual
Профиль формата : Advanced Simple@L5
Параметр BVOP формата : 1
Параметр QPel формата : Нет
Параметр GMC формата : Без точки перехода
Параметр матрицы формата : Выборочная
Идентификатор кодека : XVID
Идентификатор кодека/Подсказка : XviD
Продолжительность : 1 ч. 20 м.
Битрейт : 1160 Кбит/сек
Ширина : 640 пикселей
Высота : 480 пикселей
Соотношение сторон : 4:3
Частота кадров : 25,000 кадров/сек
Цветовое пространство : YUV
Субдискретизация насыщенности : 4:2:0
Битовая глубина : 8 бит
Тип развёртки : Прогрессивная
Метод сжатия : С потерями
Бит/(Пиксели*Кадры) : 0.151
Размер потока : 664 Мбайт (89%)
Библиотека кодирования : XviD 1.2.1 (UTC 2008-12-04)

Аудио
Идентификатор : 1
Формат : MPEG Audio
Версия формата : Version 1
Профиль формата : Layer 3
Идентификатор кодека : 55
Идентификатор кодека/Подсказка : MP3
Продолжительность : 1 ч. 20 м.
Вид битрейта : Постоянный
Битрейт : 128 Кбит/сек
Каналы : 2 канала
Частота : 48,0 КГц
Метод сжатия : С потерями
Размер потока : 73,3 Мбайт (10%)
Выравнивание : Соединение по промежуткам
Продолжительность промежутка : 40 мс. (1,00 видеокадр)
Время предзагрузки промежутка : 504 мс.
Библиотека кодирования : LAME3.99.1



Раздача от:



   Похожие торренты   Торрент   Размер 
В этой теме нет новых непрочитанных сообщений. Белое солнце пустыни (1970) DVD5 от Youtracker | сжатый

4 | 2

4.35 ГБ

В этой теме нет новых непрочитанных сообщений. Белое солнце пустыни (1970) DVDRip-AVC

13 | 5

1.43 ГБ

В этой теме нет новых непрочитанных сообщений. Белое солнце пустыни (1970) DVDRip by FREEISLAND

241 | 10

2.44 ГБ

В этой теме нет новых непрочитанных сообщений. Белое солнце пустыни (1970) BDRip

390 | 32

751.14 МБ

В этой теме нет новых непрочитанных сообщений. Белое солнце пустыни (1970) HDRip-AVC

13 | 0

746.12 МБ

В этой теме нет новых непрочитанных сообщений. Белое солнце пустыни (1970) HDRip от Scarabey

61 | 15

679.14 МБ

В этой теме нет новых непрочитанных сообщений. Белое солнце пустыни (1970) HDTVRip от Generalfilm

4 | 5

1.37 ГБ




Вы не можете начинать темы
Вы не можете отвечать на сообщения
Вы не можете редактировать свои сообщения
Вы не можете удалять свои сообщения
Вы не можете добавлять вложения

Перейти:  
Для Мосгорсуда, Роскомнадзора и рекламодателей: mosgorsud-torrent[собачка]yandex.ru
 Вход
ppkBB3cker v.2 © 2008-2014 @ PPK
[ Time : 0.038s | 15 Queries | GZIP : Off ]

cron