img image001 image001 image001 image001 image001 image001 image001 image001 image001 image001 image001 image001 image001 image001 image001

Planets Sun Sun Sun
Статистика раздачи
Автор: Снежана | Размер: 338.1 МБ | Добавлен: 24 июл 2013
Раздают: 18    Качают: 4
Скачать торрент
Скачать торрент
Описание торрента

СообщениеДобавлено: 24 июл 2013 

#77



Оригинальное название: Убийцы
Год выхода: 1956
Жанр: Триллер, драма, короткометражка
Режиссеры: Андрей Тарковский, Александр Гордон, Марика Бейку
В ролях: Юлий Файт (Ник Адамс), Александр Гордон (Джордж), Валентин Виноградов (Эл), Вадим Новиков (Макс), Юрий Дубровин (первый клиент), Андрей Тарковский (второй клиент), Василий Шукшин (Оле Андерсон)


Обычный вечер в маленьком городке. В бар заходят два подозрительных молодых человека. Они будут ждать Оле Андерсона, чтобы убить его...






Разные интересности и факты:
    «Убийцы» — короткометражная экранизация одноименного рассказа американского писателя Эрнеста Хемингуэя (англ. "The Killers", 1927), курсовая работа, поставленная осенью 1956 года группой студентов ВГИКа

    Первый из трех короткометражных фильмов ("Убийцы", "Сегодня увольнения не будет", "Каток и скрипка"), поставленных Андреем Тарковским во время его учёбы во ВГИКе (режиссерская мастерская М. И. Ромма)

    Фильм состоит из трех эпизодов, два из которых (в баре) поставлены Андреем Тарковским совместно с Марикой Бейку. Эпизод в комнате Оле Андерсона поставил Александр Гордон, он же снялся в роли бармена. В кадре впервые появляются Андрей Тарковский (один из посетителей бара) и Василий Шукшин (Оле Андерсон)
    Страна: СССР
    Продолжительность: 21 мин. 18 сек.
    Перевод: Не требуется


    General:
    Format : AVI
    Format/Info : Audio Video Interleave
    File size : 338 MiB
    Duration : 21mn 18s
    Overall bit rate : 2 218 Kbps
    Writing library : VirtualDub build 16297/release

    Video:
    ID : 0
    Format : MPEG-4 Visual
    Format settings, BVOP : Yes
    Format settings, QPel : No
    Format settings, GMC : No warppoints
    Format settings, Matrix : Default (H.263)
    Muxing mode : Packed bitstream
    Codec ID : DX50
    Codec ID/Hint : DivX 5
    Duration : 21mn 18s
    Bit rate : 2 081 Kbps
    Width : 640 pixels
    Height : 480 pixels
    Display aspect ratio : 4:3
    Frame rate : 23.976 fps
    Resolution : 24 bits
    Colorimetry : 4:2:0
    Scan type : Progressive
    Bits/(Pixel*Frame) : 0.282
    Stream size : 317 MiB (94%)
    Writing library : DivX 5.0.5 (UTC 2003-04-24)

    Audio:
    ID : 1
    Format : MPEG Audio
    Format version : Version 1
    Format profile : Layer 3
    Codec ID : 55
    Codec ID/Hint : MP3
    Duration : 21mn 18s
    Bit rate mode : Constant
    Bit rate : 128 Kbps
    Channel(s) : 2 channels
    Sampling rate : 48.0 KHz
    Resolution : 16 bits
    Stream size : 19.5 MiB (6%)
    Alignment : Split accross interleaves
    Interleave, duration : 42 ms (1.00 video frame)
    Interleave, preload duration : 500 ms

    Качество видео: DVDRip
    Формат видео: Avi
    Видео кодек: DivX
    Видео: 640x480 (4:3), 23.976 fps, ~2081 kbps, 0.282 bit/pixel
    Аудио: 48.0 kHz, 2 ch, Mp3, 128 kbps







   Похожие торренты   Торрент   Размер 
В этой теме нет новых непрочитанных сообщений. Убийцы (1956) BDRip от New-Team

2 | 1

369.55 МБ

В этой теме нет новых непрочитанных сообщений. Убийцы (1956) BDRip-AVC от New-Team

18 | 0

372.56 МБ

В этой теме нет новых непрочитанных сообщений. Бесшумные убийцы / Молчаливые убийцы / Silent Assassins (1988) VHSRip от SergV | A

8 | 3

1.37 ГБ

В этой теме нет новых непрочитанных сообщений. Сборник - 5 лучших комедий Эльдара Рязанова [часть 2] (1956-1971) DVDRip, DVDRip-AVC

7 | 5

7.07 ГБ

В этой теме нет новых непрочитанных сообщений. Дневник убийцы [01-12 из 12] (2002) DVDRip

90 | 15

4.09 ГБ

В этой теме нет новых непрочитанных сообщений. Она вас любит (1956) DVDRip-AVC

86 | 40

1.72 ГБ

В этой теме нет новых непрочитанных сообщений. Солдаты (1956) DVDRip

41 | 5

1.45 ГБ




Вы не можете начинать темы
Вы не можете отвечать на сообщения
Вы не можете редактировать свои сообщения
Вы не можете удалять свои сообщения
Вы не можете добавлять вложения

Перейти:  
Для Мосгорсуда, Роскомнадзора и рекламодателей: mosgorsud-torrent[собачка]yandex.ru
 Вход
ppkBB3cker v.2 © 2008-2014 @ PPK
[ Time : 0.047s | 14 Queries | GZIP : Off ]

Торрент трекер RUTOR.IN, Не можете зайти на rutor.org? Какой новый адрес рутор? Какое зеркало рутор? Не работает rutor.org и зеркала? Тогда наш торрент специально для вас. Rutor.in неофициальное зеркало rutor. В случае если у Вас заблокирован rutor или вдруг Вы не можете на него зайти, то Вы без труда сможете скачать бесплатно и без рекламы последние новинки кино, игр, сериалов и прочего у нас, на Rutor.in. Не нужно использовать прокси, чтобы зайти на рутор, достаточно воспользоваться нашим ресурсом. Все новые фильмы, игры, сериалы, книги и музыка за 2013 и 2014 годы через торрент бесплатно. Скачивайте фильмы в хорошем качестве, игры для пк, xbox, playstation без регистрации. У нас вы найдете новые Зарубежные сериалы и Русские сериалы 2013, 2014, 2015 годов. Оставайтесь с нами, качайте любимые фильмы, игры, сериалы, книги и музыку.