img image001 image001 image001 image001 image001 image001 image001 image001 image001 image001 image001 image001 image001 image001 image001

Planets Sun Sun Sun
Статистика раздачи
Автор: Снежана | Размер: 1.46 ГБ | Добавлен: 24 июл 2013
Раздают: 5    Качают: 2
Скачать торрент
Скачать торрент
Описание торрента

СообщениеДобавлено: 24 июл 2013 

#77
Год выпуска: 2012
Страна: Россия
Студия: Наше Кино, ВВП Альянс

Жанр: фэнтези, семейный
Продолжительность: 01:27:50

Перевод: не требуется
Субтитры: нет
Оригинальная аудиодорожка: Русский

Режиссер: Елизавета Соломина, Константин Статский, Александр Баршак

В ролях: Константин Хабенский, Гоша Куценко, Ксения Раппопорт, Михаил Пореченков, Алексей Серебряков, Михаил Козаков, Андрей Смоляков, Артур Смольянинов, Ирина Пегова, Дарья Мороз...

Описание:Хотели бы Вы очутиться в настоящей игрушечной стране, где плюшевый мишка, букварь и ваш mp-3 плеер, могут стать вашими друзьями и помогут выбраться из очень опасного приключения? Или побывать ночью в цирке, на необычном представлении, где вы оказались, «следуя за белым кроликом», как героиня другой известной сказки? Или оказаться в школе, где вместо уроков вас ждут «страшные приключения» и сказочные монстры? Именно такие истории пришлось пережить героям фильма «Сказка. Есть» — самым обычным детям 21 века...





Исходник: DVD9 R5
Качество видео: DVDRip
Формат видео: AVI

Видео: 720x304 (2.25:1), 25 fps, XviD MPEG-4 ~ 1920 kbps avg, 0.351 bit/pixel
Аудио: Русский, 48 kHz, AC3 6 ch, 448.00 kbps Constant

Раздача от:
Общее
Полное имя : E:Tracker2012Сказка. ЕстьSkazka.est.2012.O.DVDRip.1.46GB.avi
Формат : AVI
Формат/Информация : Audio Video Interleave
Размер файла : 1,46 Гбайт
Продолжительность : 1 ч. 27 м.
Общий поток : 2378 Кбит/сек
Программа кодирования : VirtualDubMod 1.5.10.3 | www.virtualdub-fr.org || (build 2550/release)
Библиотека кодирования : VirtualDubMod build 2550/release

Видео
Идентификатор : 0
Формат : MPEG-4 Visual
Профиль формата : Advanced Simple@L5
Параметр BVOP формата : 2
Параметр QPel формата : Нет
Параметр GMC формата : Без точки перехода
Параметр матрицы формата : Default (MPEG)
Режим смешивания : Сжатый битовый поток
Идентификатор кодека : XVID
Идентификатор кодека/Подсказка : XviD
Продолжительность : 1 ч. 27 м.
Битрейт : 1920 Кбит/сек
Ширина : 720 пикселей
Высота : 304 пикселя
Соотношение сторон : 2,35:1
Частота кадров : 25,000 кадров/сек
Цветовое пространство : YUV
Субдискретизация насыщенности : 4:2:0
Битовая глубина : 8 бит
Тип развёртки : Прогрессивная
Метод сжатия : С потерями
Бит/(Пиксели*Кадры) : 0.351
Размер потока : 1,18 Гбайт (81%)
Библиотека кодирования : XviD 72

Аудио
Идентификатор : 1
Формат : AC-3
Формат/Информация : Audio Coding 3
Расширение режима : CM (complete main)
Идентификатор кодека : 2000
Продолжительность : 1 ч. 27 м.
Вид битрейта : Постоянный
Битрейт : 448 Кбит/сек
Каналы : 6 каналов
Расположение каналов : Front: L C R, Side: L R, LFE
Частота : 48,0 КГц
Битовая глубина : 16 бит
Метод сжатия : С потерями
Размер потока : 282 Мбайт (19%)
Выравнивание : Разделение по промежуткам
Продолжительность промежутка : 40 мс. (1,00 видеокадр)
Время предзагрузки промежутка : 500 мс





   Похожие торренты   Торрент   Размер 
В этой теме нет новых непрочитанных сообщений. Последняя сказка Риты (2012) DVDRip от Youtracker | Лицензия

170 | 4

1.46 ГБ

В этой теме нет новых непрочитанных сообщений. Последняя сказка Риты (2012) DVDRip от Youtracker | Лицензия

35 | 5

744.88 МБ

В этой теме нет новых непрочитанных сообщений. Сказка. Есть (2012) DVD5 от Youtracker | сжатый

0 | 3

4.35 ГБ

В этой теме нет новых непрочитанных сообщений. Сказка. Есть (2012) DVD9 от Youtracker | Лицензия

1 | 3

6.33 ГБ

В этой теме нет новых непрочитанных сообщений. Сказка странствий (1982) DVDRip от Youtracker

169 | 29

1.45 ГБ

В этой теме нет новых непрочитанных сообщений. Сказка о потерянном времени (1964) DVDRip от Youtracker

590 | 33

742.9 МБ

В этой теме нет новых непрочитанных сообщений. Сказка о потерянном времени (1964) DVDRip-AVC от Youtracker

119 | 21

1.93 ГБ




Вы не можете начинать темы
Вы не можете отвечать на сообщения
Вы не можете редактировать свои сообщения
Вы не можете удалять свои сообщения
Вы не можете добавлять вложения

Перейти:  
Для Мосгорсуда, Роскомнадзора и рекламодателей: mosgorsud-torrent[собачка]yandex.ru
 Вход
ppkBB3cker v.2 © 2008-2014 @ PPK
[ Time : 0.033s | 15 Queries | GZIP : Off ]

cron