img image001 image001 image001 image001 image001 image001 image001 image001 image001 image001 image001 image001 image001 image001 image001

Planets Sun Sun Sun
Статистика раздачи
Автор: Снежана | Размер: 750.28 МБ | Добавлен: 24 июл 2013
Раздают: 14    Качают: 3
Скачать торрент
Скачать торрент
Описание торрента

СообщениеДобавлено: 24 июл 2013 

#77

Информация о фильме
Название: Сказка. Есть
Год выхода: 2012
Жанр: фэнтези, семейный
Режиссер: Елизавета Соломина, Константин Статский, Александр Баршак
В ролях: Константин Хабенский, Гоша Куценко, Ксения Раппопорт, Михаил Пореченков, Алексей Серебряков, Михаил Козаков, Андрей Смоляков, Артур Смольянинов, Ирина Пегова, Дарья Мороз

О фильме:
Хотели бы Вы очутиться в настоящей игрушечной стране, где плюшевый мишка, букварь и ваш mp-3 плеер, могут стать вашими друзьями и помогут выбраться из очень опасного приключения? Или побывать ночью в цирке, на необычном представлении, где вы оказались, «следуя за белым кроликом», как героиня другой известной сказки? Или оказаться в школе, где вместо уроков вас ждут «страшные приключения» и сказочные монстры? Именно такие истории пришлось пережить героям фильма «Сказка. Есть» — самым обычным детям 21 века.

Страна: Россия
Студия: Наше Кино, ВВП Альянс
Продолжительность: 01:27:55
Перевод: Не требуется

Файл
Кодек: XviD / MP3
Качество: DVDRip [Исх. DVD9]
Видео: XviD, 656x288 (2.25:1), 25 fps, 1058 kbps, 0.224 bit/pixel
Звук: MP3, 48 kHz, 2 ch, 128 kbps

General
Complete name : /media/Skazka.est_2012.DVDRip.745_[Rutor.org].avi
Format : AVI
Format/Info : Audio Video Interleave
File size : 750 MiB
Duration : 1h 27mn
Overall bit rate : 1 193 Kbps
Writing application : VirtualDubMod 1.5.4.1 (build 2178/release)
Writing library : VirtualDubMod build 2178/release

Video
ID : 0
Format : MPEG-4 Visual
Format profile : Advanced Simple@L5
Format settings, BVOP : 1
Format settings, QPel : No
Format settings, GMC : No warppoints
Format settings, Matrix : Custom
Codec ID : XVID
Codec ID/Hint : XviD
Duration : 1h 27mn
Bit rate : 1 058 Kbps
Width : 656 pixels
Height : 288 pixels
Display aspect ratio : 2.25:1
Frame rate : 25.000 fps
Color space : YUV
Chroma subsampling : 4:2:0
Bit depth : 8 bits
Scan type : Progressive
Compression mode : Lossy
Bits/(Pixel*Frame) : 0.224
Stream size : 665 MiB (89%)
Writing library : XviD 65

Audio
ID : 1
Format : MPEG Audio
Format version : Version 1
Format profile : Layer 3
Mode : Joint stereo
Mode extension : MS Stereo
Codec ID : 55
Codec ID/Hint : MP3
Duration : 1h 27mn
Bit rate mode : Constant
Bit rate : 128 Kbps
Channel(s) : 2 channels
Sampling rate : 48.0 KHz
Compression mode : Lossy
Stream size : 80.5 MiB (11%)
Alignment : Aligned on interleaves
Interleave, duration : 80 ms (2.00 video frames)
Interleave, preload duration : 504 ms
Writing library : LAME3.99r
Encoding settings : -m j -V 4 -q 2 -lowpass 17 -b 128
Language : Russian



   Похожие торренты   Торрент   Размер 
В этой теме нет новых непрочитанных сообщений. Сказка о Египте (Египетская сказка) / A Tale of Egypt (1998) DVDRip

40 | 6

1012.59 МБ

В этой теме нет новых непрочитанных сообщений. Сказка о рыбаке и рыбке + Сказка о мертвой царевне и о семи богатырях (1950, 1951) DVDRip-AVC от R.G.RealMT

905 | 230

947.49 МБ

В этой теме нет новых непрочитанных сообщений. Фея / Сказка / Fairytale (2012) DVDRip | L1

39 | 9

1.38 ГБ

В этой теме нет новых непрочитанных сообщений. Сказка. Есть (2012) DVDRip от Youtracker

5 | 2

1.46 ГБ

В этой теме нет новых непрочитанных сообщений. Последняя сказка Риты (2012) DVDRip-AVC | Лицензия

332 | 8

1.46 ГБ

В этой теме нет новых непрочитанных сообщений. Последняя сказка Риты (2012) DVDRip от Youtracker | Лицензия

170 | 4

1.46 ГБ

В этой теме нет новых непрочитанных сообщений. Последняя сказка Риты (2012) DVDRip от Youtracker | Лицензия

35 | 5

744.88 МБ




Вы не можете начинать темы
Вы не можете отвечать на сообщения
Вы не можете редактировать свои сообщения
Вы не можете удалять свои сообщения
Вы не можете добавлять вложения

Перейти:  
Для Мосгорсуда, Роскомнадзора и рекламодателей: mosgorsud-torrent[собачка]yandex.ru
 Вход
ppkBB3cker v.2 © 2008-2014 @ PPK
[ Time : 0.315s | 15 Queries | GZIP : Off ]

Торрент трекер RUTOR.IN, Не можете зайти на rutor.org? Какой новый адрес рутор? Какое зеркало рутор? Не работает rutor.org и зеркала? Тогда наш торрент специально для вас. Rutor.in неофициальное зеркало rutor. В случае если у Вас заблокирован rutor или вдруг Вы не можете на него зайти, то Вы без труда сможете скачать бесплатно и без рекламы последние новинки кино, игр, сериалов и прочего у нас, на Rutor.in. Не нужно использовать прокси, чтобы зайти на рутор, достаточно воспользоваться нашим ресурсом. Все новые фильмы, игры, сериалы, книги и музыка за 2013 и 2014 годы через торрент бесплатно. Скачивайте фильмы в хорошем качестве, игры для пк, xbox, playstation без регистрации. У нас вы найдете новые Зарубежные сериалы и Русские сериалы 2013, 2014, 2015 годов. Оставайтесь с нами, качайте любимые фильмы, игры, сериалы, книги и музыку.
cron