img image001 image001 image001 image001 image001 image001 image001 image001 image001 image001 image001 image001 image001 image001 image001

Planets Sun Sun Sun
Статистика раздачи
Автор: Снежана | Размер: 5.74 ГБ | Добавлен: 24 июл 2013
Раздают: 2    Качают: 8
Скачать торрент
Скачать торрент
Описание торрента

СообщениеДобавлено: 24 июл 2013 

#77

Информация о фильме
Название: Седьмая жертва
Оригинальное название: Седьмая жертва
Год выхода: 2010
Жанр: мелодрама, криминал
Режиссер: Марк Горобец
В ролях: Юлия Меньшова, Андрей Соколов, Игорь Гордин, Александр Числов

О фильме:
Вот уже целый год в городе орудует маньяк-убийца. На его счету шесть жертв, каждая из которых задушена струной от рояля. В то время как следствие в лице Глухаревой и Гнездиковского стремится доказать виновность главного подозреваемого, неудавшегося музыканта, адвокат Зимин берётся защищать его интересы.
Профессиональное противостояние, перерастающее в любовный треугольник, запутанная история, разыгрываемая перед нашими героями — настоящая симфония, которую им предстоит разложить по нотам, а главное, предотвратить последнее, седьмое убийство.



Выпущено: Россия / Мотор-фильм
Продолжительность: 01:32:13
Озвучивание: Оригинальное [лицензия]

Файл
Формат: DVD-Video
Качество: DVD9
Видео: PAL 4:3 (720x576(0.737)) MPEG Video, 25,000 кадр/сек, 7644 Кбит/сек
Аудио: Russian (Dolby AC3, 2 ch) 384 Кбит/сек, 48,0 КГц
Бонусы: Смотрите на DVD
Размер: 5.74 GB
Скачать: Сэмпл

Title: Sedmaja.zhertva.2010.DVD9
Size: 5.74 Gb ( 6 021 194,00 KBytes ) - DVD-9
Enabled regions: 1, 2, 3, 4, 5, 6, 7, 8

VTS_01 :
Play Length: 01:32:13
Video: PAL 4:3 (720x576) VBR
Audio:
Russian (Dolby AC3, 2 ch)

VTS_02 :
Play Length: 00:00:14+00:00:09+00:01:59+00:01:54+00:02:11+00:01:48
Video: PAL 16:9 (720x576) VBR, Auto Pan&Scan, Auto Letterboxed
Audio:
Russian (Dolby AC3, 2 ch)

Menus Information *

VIDEO_TS Menu
Video:
PAL 4:3 (720x576) VBR
Letterboxed
Audio:
Not specified (Dolby AC3, 2 ch)
English Language Unit :
Title Menu

VTS_01 Menu
Video:
PAL 4:3 (720x576) VBR
Audio:
Not specified (Dolby AC3, 2 ch)
English Language Unit :
Root Menu

VTS_02 Menu
Video:
PAL 4:3 (720x576) VBR
Auto Pan&Scan, Auto Letterboxed
English Language Unit :
Root Menu

Общее
Полное имя : J:Новинки 2012Sedmaja.zhertva.2010.DVD9VIDEO_TSVTS_01_2.VOB
Формат : MPEG-PS
Размер файла : 1024 Мбайт
Продолжительность : 17 м.
Общий поток : 8171 Кбит/сек

Видео
Идентификатор : 224 (0xE0)
Формат : MPEG Video
Версия формата : Version 2
Профиль формата : Main@Main
Параметр BVOP формата : Да
Параметр матрицы формата : По умолчанию
Параметр GOP формата : M=3, N=15
Продолжительность : 17 м.
Битрейт : 7644 Кбит/сек
Ширина : 720 пикселей
Высота : 576 пикселей
Соотношение сторон : 4:3
Частота кадров : 25,000 кадров/сек
Стандарт вещания : PAL
Цветовое пространство : YUV
Субдискретизация насыщенности : 4:2:0
Битовая глубина : 8 бит
Тип развёртки : Прогрессивная
Метод сжатия : С потерями
Бит/(Пиксели*Кадры) : 0.737
Размер потока : 955 Мбайт (93%)

Аудио
Идентификатор : 189 (0xBD)-128 (0x80)
Формат : AC-3
Формат/Информация : Audio Coding 3
Расширение режима : CM (complete main)
Параметр Endianness формата : Big
Режим смешивания : DVD-Video
Продолжительность : 17 м.
Вид битрейта : Постоянный
Битрейт : 384 Кбит/сек
Каналы : 2 канала
Расположение каналов : Front: L R
Частота : 48,0 КГц
Битовая глубина : 16 бит
Метод сжатия : С потерями
Задержка видео : -712 мс.
Размер потока : 48,1 Мбайт (5%)













   Похожие торренты   Торрент   Размер 
В этой теме нет новых непрочитанных сообщений. Седьмая жертва (2010) DVDRip | Лицензия

6 | 3

1.37 ГБ

В этой теме нет новых непрочитанных сообщений. Седьмая жертва (2010) DVDRip AVC от Киномагия l Лицензия

4 | 3

1.42 ГБ

В этой теме нет новых непрочитанных сообщений. Седьмая жертва / The Last Will (2005) DVDRip | P

126 | 11

1.37 ГБ

В этой теме нет новых непрочитанных сообщений. Александра Маринина - Седьмая жертва (2013) MP3

184 | 18

793.38 МБ

В этой теме нет новых непрочитанных сообщений. Седьмая жертва / The Last Will (2005) DVDRip от NovaLan

4 | 1

1.37 ГБ

В этой теме нет новых непрочитанных сообщений. Седьмая жертва (2011) SATRip by Suprug (BigFANGroup)

1 | 14

850.31 МБ

В этой теме нет новых непрочитанных сообщений. Первая жертва (2010) PC

185 | 5

52.41 МБ




Вы не можете начинать темы
Вы не можете отвечать на сообщения
Вы не можете редактировать свои сообщения
Вы не можете удалять свои сообщения
Вы не можете добавлять вложения

Перейти:  
Для Мосгорсуда, Роскомнадзора и рекламодателей: mosgorsud-torrent[собачка]yandex.ru
 Вход
ppkBB3cker v.2 © 2008-2014 @ PPK
[ Time : 0.040s | 15 Queries | GZIP : Off ]

Торрент трекер RUTOR.IN, Не можете зайти на rutor.org? Какой новый адрес рутор? Какое зеркало рутор? Не работает rutor.org и зеркала? Тогда наш торрент специально для вас. Rutor.in неофициальное зеркало rutor. В случае если у Вас заблокирован rutor или вдруг Вы не можете на него зайти, то Вы без труда сможете скачать бесплатно и без рекламы последние новинки кино, игр, сериалов и прочего у нас, на Rutor.in. Не нужно использовать прокси, чтобы зайти на рутор, достаточно воспользоваться нашим ресурсом. Все новые фильмы, игры, сериалы, книги и музыка за 2013 и 2014 годы через торрент бесплатно. Скачивайте фильмы в хорошем качестве, игры для пк, xbox, playstation без регистрации. У нас вы найдете новые Зарубежные сериалы и Русские сериалы 2013, 2014, 2015 годов. Оставайтесь с нами, качайте любимые фильмы, игры, сериалы, книги и музыку.