img image001 image001 image001 image001 image001 image001 image001 image001 image001 image001 image001 image001 image001 image001 image001

Planets Sun Sun Sun
Статистика раздачи
Автор: Снежана | Размер: 4.37 ГБ | Добавлен: 24 июл 2013
Раздают: 24    Качают: 5
Скачать торрент
Скачать торрент
Описание торрента

СообщениеДобавлено: 24 июл 2013 

#77

Информация о фильме
Название: Орда
Год выхода: 2012
Производство: Россия / Pravoslavnaya Encyclopaedia
Жанр: История
Перевод: Не требуется [Русский язык]
Субтитры: Отсутствуют

Режиссер: Андрей Прошкин
В ролях: Максим Суханов, Андрей Панин, Виталий Хаев, Александр Яценко, Петр Янданэ, Евгений Харитонов, Юрий Пронин, Роза Хайруллина, Виталий Гусев, Юнчен Жуань

О фильме:
Орда. Веками это слово означало кровавые набеги и унизительную дань для многих стран и народов. Странный и страшный мир со своими законами и обычаями. В середине XIV века власть Орды простирается над большей частью Евразии. Платит дань восточному соседу и Московское княжество. Когда ханшу Тайдулу сражает тяжелый недуг, ни один целитель оказывается не силах ей помочь. Тогда в Орду вызывают «московского колдуна» митрополита Алексия. На карту поставлена судьба всего княжества. Однако и сам Алексий не знает, чем обернется его путешествие в Орду.


Файл
Продолжительность: 02:04:00
Качество видео: DVD5
Видеокодек: MPEG-2
Видео: 720x576@1024x576 (PAL 16:9), ~4877 kbps, Bit/Pixel: 0.470
Аудио: AC3 5.1, 448 kbps, 48.0 KHz [Русский]

Отсутствуют
Title: Орда.(2012).DVD5.NNM-Club
Size: 4.37 Gb ( 4 582 890 KBytes ) - DVD-5
Enabled regions: 1, 2, 3, 4, 5, 6, 7, 8

VTS_01 :
Play Length:
Video: PAL 16:9 (720x576) VBR, Auto Pan&Scan, Auto Letterboxed

VTS_02 :
Play Length:
Video: PAL 16:9 (720x576) VBR, Auto Pan&Scan, Auto Letterboxed

VTS_03 :
Play Length: 02:04:00
Video: PAL 16:9 (720x576) VBR, Auto Pan&Scan, Auto Letterboxed
Audio:
Not specified (Dolby AC3, 6 ch)
Полное имя : D:Орда.(2012).DVD5.NNM-ClubVIDEO_TSVTS_03_3.VOB
Формат : MPEG-PS
Размер файла : 1024 Мбайт
Продолжительность : 26 м.
Режим общего битрейта : Переменный
Общий поток : 5433 Кбит/сек

Видео
Идентификатор : 224 (0xE0)
Формат : MPEG Video
Версия формата : Version 2
Профиль формата : Main@Main
Параметр BVOP формата : Да
Параметр матрицы формата : Выборочная
Параметр GOP формата : M=3, N=12
Продолжительность : 26 м.
Вид битрейта : Переменный
Битрейт : 4877 Кбит/сек
Максимальный битрейт : 8734 Кбит/сек
Ширина : 720 пикселей
Высота : 576 пикселей
Соотношение сторон : 16:9
Частота кадров : 25,000 кадров/сек
Стандарт вещания : PAL
Цветовое пространство : YUV
Субдискретизация насыщенности : 4:2:0
Битовая глубина : 8 бит
Тип развёртки : Чересстрочная
Порядок развёртки : Верхнее поле первое
Метод сжатия : С потерями
Бит/(Пиксели*Кадры) : 0.470
Размер потока : 919 Мбайт (90%)

Аудио
Идентификатор : 189 (0xBD)-128 (0x80)
Формат : AC-3
Формат/Информация : Audio Coding 3
Расширение режима : CM (complete main)
Параметр Endianness формата : Big
Режим смешивания : DVD-Video
Продолжительность : 26 м.
Вид битрейта : Постоянный
Битрейт : 448 Кбит/сек
Каналы : 6 каналов
Расположение каналов : Front: L C R, Side: L R, LFE
Частота : 48,0 КГц
Битовая глубина : 16 бит
Метод сжатия : С потерями
Задержка видео : -768 мс.
Размер потока : 84,4 Мбайт (8%)

Меню
Исходник: Орда (2012) DVD9.
Удалены: предупреждения и заставки, блок с рекламой в начале фильма (продолжительность сократилась на 15 секунд), русская DTS 5.1 аудиодорога.
Сжатие: конечные титры на 70%, сам фильм на 14%.
Меню: статичное, недействующие кнопки затерты и отключены.
Используемый софт: DVD ReMake Pro (обработка диска), DVD Rebuilder + CCE/Procoder в 7 проходов (само сжатие), Adobe PhotoShop + MuxMan (работа с меню).
[02:57:25] Phase I, PREPARATION started.
- DVD-RB v1.28.2
- AVISYNTH 2.5.8.0
- CCE 1.0.1.9 encoder selected.
- Source: DVD-VIDEO
- VTS_03: 2 618 784 sectors.
-- Scanning and writing .D2V & .AVS files
-- Processed 186 005 frames.
-- Building .AVS and .ECL files
- Reduction Level for DVD-5: 83,9%
- Overall Bitrate : 4 430Kbs
- Space for Video : 4 023 096KB
- HIGH/LOW/TYPICAL Bitrates: 5 302/1 431/4 430 Kbs
[02:59:17] Phase I, PREPARATION completed in 2 minutes.
[03:04:00] Phase II ENCODING started
- Extracting STILLS for VTS_03 segment 0
- Creating M2V for VTS_03 segment 1
- Creating M2V for VTS_03 segment 2
- Creating M2V for VTS_03 segment 3
- Creating M2V for VTS_03 segment 4
- Creating M2V for VTS_03 segment 5
- Creating M2V for VTS_03 segment 6
- Creating M2V for VTS_03 segment 7
- Creating M2V for VTS_03 segment 8
- Creating M2V for VTS_03 segment 9
- Creating M2V for VTS_03 segment 10
- Creating M2V for VTS_03 segment 11
- Creating M2V for VTS_03 segment 12
- Creating M2V for VTS_03 segment 13
- Creating M2V for VTS_03 segment 14
- Creating M2V for VTS_03 segment 15
- Creating M2V for VTS_03 segment 16
- Creating M2V for VTS_03 segment 17
[06:01:07] Phase II ENCODING completed in 177 minutes.
[06:01:12] Phase III, REBUILD started.
- Copying IFO, BUP, and unaltered files...
- Processing VTS_03
- Reading/processing TMAP table...
- Rebuilding seg 0 VOBID 1 CELLID 1
- Updating NAVPACKS for VOBID_01
- Rebuilding seg 1 VOBID 2 CELLID 1
- Rebuilding seg 2 VOBID 2 CELLID 2
- Rebuilding seg 3 VOBID 2 CELLID 3
- Rebuilding seg 4 VOBID 2 CELLID 4
- Rebuilding seg 5 VOBID 2 CELLID 5
- Rebuilding seg 6 VOBID 2 CELLID 6
- Rebuilding seg 7 VOBID 2 CELLID 7
- Rebuilding seg 8 VOBID 2 CELLID 8
- Rebuilding seg 9 VOBID 2 CELLID 9
- Rebuilding seg 10 VOBID 2 CELLID 10
- Rebuilding seg 11 VOBID 2 CELLID 11
- Rebuilding seg 12 VOBID 2 CELLID 12
- Rebuilding seg 13 VOBID 2 CELLID 13
- Rebuilding seg 14 VOBID 2 CELLID 14
- Rebuilding seg 15 VOBID 2 CELLID 15
- Rebuilding seg 16 VOBID 2 CELLID 16
- Rebuilding seg 17 VOBID 2 CELLID 17
- Updating NAVPACKS for VOBID_02
- Updated VTS_C_ADT.
- Updated VTS_VOBU_ADMAP.
- Updated IFO: VTS_03_0.IFO
- Updating TMAP table...
- Correcting VTS Sectors...
[06:13:38] Phase III, REBUILD completed in 12 minutes.

Done.



Релиз от:



   Похожие торренты   Торрент   Размер 
В этой теме нет новых непрочитанных сообщений. Орда (2012) DVD9 + DVD5 R5 от Youtracker | лицензия

1 | 4

9.41 ГБ

В этой теме нет новых непрочитанных сообщений. Орда (2012) BDRip 1080p

52 | 8

11.8 ГБ

В этой теме нет новых непрочитанных сообщений. Орда (2012) BDRemux / Лицензия

3 | 2

20.83 ГБ

В этой теме нет новых непрочитанных сообщений. Орда (2012) BDRip 1080p

63 | 10

5.76 ГБ

В этой теме нет новых непрочитанных сообщений. Орда (2012) BDRip от HELLYWOOD

47 | 5

2.18 ГБ

В этой теме нет новых непрочитанных сообщений. Орда (2012) HDRip от Scarabey | Лицензия

38 | 10

744.17 МБ

В этой теме нет новых непрочитанных сообщений. Орда (2012) BDRip от HQCLUB | Лицензия

123 | 10

2.18 ГБ




Вы не можете начинать темы
Вы не можете отвечать на сообщения
Вы не можете редактировать свои сообщения
Вы не можете удалять свои сообщения
Вы не можете добавлять вложения

Перейти:  
Для Мосгорсуда, Роскомнадзора и рекламодателей: mosgorsud-torrent[собачка]yandex.ru
 Вход
ppkBB3cker v.2 © 2008-2014 @ PPK
[ Time : 0.040s | 15 Queries | GZIP : Off ]

Торрент трекер RUTOR.IN, Не можете зайти на rutor.org? Какой новый адрес рутор? Какое зеркало рутор? Не работает rutor.org и зеркала? Тогда наш торрент специально для вас. Rutor.in неофициальное зеркало rutor. В случае если у Вас заблокирован rutor или вдруг Вы не можете на него зайти, то Вы без труда сможете скачать бесплатно и без рекламы последние новинки кино, игр, сериалов и прочего у нас, на Rutor.in. Не нужно использовать прокси, чтобы зайти на рутор, достаточно воспользоваться нашим ресурсом. Все новые фильмы, игры, сериалы, книги и музыка за 2013 и 2014 годы через торрент бесплатно. Скачивайте фильмы в хорошем качестве, игры для пк, xbox, playstation без регистрации. У нас вы найдете новые Зарубежные сериалы и Русские сериалы 2013, 2014, 2015 годов. Оставайтесь с нами, качайте любимые фильмы, игры, сериалы, книги и музыку.