img image001 image001 image001 image001 image001 image001 image001 image001 image001 image001 image001 image001 image001 image001 image001

Planets Sun Sun Sun
Статистика раздачи
Автор: Снежана | Размер: 1.45 ГБ | Добавлен: 24 июл 2013
Раздают: 41    Качают: 6
Скачать торрент
Скачать торрент
Описание торрента

СообщениеДобавлено: 24 июл 2013 

#77

Год выпуска: 2001
Страна: Россия
Студия: Русское Счастье, Star Media
Жанр: мелодрама, комедия
Продолжительность: 01:42:01

Перевод: не требуется
Субтитры: нет
Оригинальная аудиодорожка: русский

Режиссер: Дмитрий Астрахан

В ролях: Александр Абдулов, Елена Проклова, Анна Легчилова, Михаил Парыгин, Лариса Борушко, Елена Бирюкова, Игорь Бочкин, Андрей Олефиренко, Владимир Золотухин, Андрей Душечкин...

Описание: Любовь прекрасна, если только избранница подходит вашим родителям. Но если Вы из обеспеченной семьи известного писателя бульварных романов, а ваша пассия — продавщица, то это точно не понравится вашей маме. Чтобы не допустить свадьбы родители готовы на все… абсолютно на все. Даже на роман папы с вашей невестой.






Исходник: DVD5 R5
Качество: DVDRip
Формат: AVI

Видео: 688x416 (1.674:1), 25.000 fps, XviD MPEG-4 ~1577 kbps avg, 0.220 bit/pixel
Аудио: 48 kHz, Dolby AC3, 6 ch, 448.00 kbps Constant

Общее
Полное имя : Zhyoltyy.karlik.2001.O.DVDRip.avi
Формат : AVI
Формат/Информация : Audio Video Interleave
Размер файла : 1,45 Гбайт
Продолжительность : 1 ч. 42 м.
Общий поток : 2034 Кбит/сек
Программа кодирования : VirtualDubMod 1.5.10.3 | www.virtualdub-fr.org || (build 2550/release)
Библиотека кодирования : VirtualDubMod build 2550/release

Видео
Идентификатор : 0
Формат : MPEG-4 Visual
Профиль формата : Advanced Simple@L5
Параметр BVOP формата : 1
Параметр QPel формата : Нет
Параметр GMC формата : Без точки перехода
Параметр матрицы формата : Выборочная
Идентификатор кодека : XVID
Идентификатор кодека/Подсказка : XviD
Продолжительность : 1 ч. 42 м.
Битрейт : 1577 Кбит/сек
Ширина : 688 пикселей
Высота : 416 пикселей
Соотношение сторон : 1,674
Частота кадров : 25,000 кадров/сек
Цветовое пространство : YUV
Субдискретизация насыщенности : 4:2:0
Битовая глубина : 8 бит
Тип развёртки : Прогрессивная
Метод сжатия : С потерями
Бит/(Пиксели*Кадры) : 0.220
Размер потока : 1,12 Гбайт (78%)
Библиотека кодирования : XviD 65

Аудио
Идентификатор : 1
Формат : AC-3
Формат/Информация : Audio Coding 3
Расширение режима : CM (complete main)
Параметр Endianness формата : Big
Идентификатор кодека : 2000
Продолжительность : 1 ч. 42 м.
Вид битрейта : Постоянный
Битрейт : 448 Кбит/сек
Каналы : 6 каналов
Расположение каналов : Front: L C R, Side: L R, LFE
Частота : 48,0 КГц
Битовая глубина : 16 бит
Метод сжатия : С потерями
Размер потока : 327 Мбайт (22%)
Выравнивание : Разделение по промежуткам
Продолжительность промежутка : 40 мс. (1,00 видеокадр)
Время предзагрузки промежутка : 500 мс.





   Похожие торренты   Торрент   Размер 
В этой теме нет новых непрочитанных сообщений. Желтый карлик (2001) DVDRip от Youtracker

5 | 4

744.73 МБ

В этой теме нет новых непрочитанных сообщений. Карлик Нос (2003) DVDRip

19 | 5

692.48 МБ

В этой теме нет новых непрочитанных сообщений. Карлик нос (2003) DVDRip

192 | 13

1.46 ГБ

В этой теме нет новых непрочитанных сообщений. Карлик Нос (2003) DVDRip-AVC

368 | 57

1.29 ГБ

В этой теме нет новых непрочитанных сообщений. Карлик Нос (2003) DVDRip от Киномагия

7 | 4

1001.43 МБ

В этой теме нет новых непрочитанных сообщений. Карлик нос (2003) DVDRip от ExKinoRay

63 | 7

1.47 ГБ

В этой теме нет новых непрочитанных сообщений. Карлик Нос / Zwerg Nase (1978) DVDRip | P

154 | 30

710.48 МБ




Вы не можете начинать темы
Вы не можете отвечать на сообщения
Вы не можете редактировать свои сообщения
Вы не можете удалять свои сообщения
Вы не можете добавлять вложения

Перейти:  
Для Мосгорсуда, Роскомнадзора и рекламодателей: mosgorsud-torrent[собачка]yandex.ru
 Вход
ppkBB3cker v.2 © 2008-2014 @ PPK
[ Time : 0.019s | 14 Queries | GZIP : On ]

Торрент трекер RUTOR.IN, Не можете зайти на rutor.org? Какой новый адрес рутор? Какое зеркало рутор? Не работает rutor.org и зеркала? Тогда наш торрент специально для вас. Rutor.in неофициальное зеркало rutor. В случае если у Вас заблокирован rutor или вдруг Вы не можете на него зайти, то Вы без труда сможете скачать бесплатно и без рекламы последние новинки кино, игр, сериалов и прочего у нас, на Rutor.in. Не нужно использовать прокси, чтобы зайти на рутор, достаточно воспользоваться нашим ресурсом. Все новые фильмы, игры, сериалы, книги и музыка за 2013 и 2014 годы через торрент бесплатно. Скачивайте фильмы в хорошем качестве, игры для пк, xbox, playstation без регистрации. У нас вы найдете новые Зарубежные сериалы и Русские сериалы 2013, 2014, 2015 годов. Оставайтесь с нами, качайте любимые фильмы, игры, сериалы, книги и музыку.