img image001 image001 image001 image001 image001 image001 image001 image001 image001 image001 image001 image001 image001 image001 image001

Planets Sun Sun Sun
Статистика раздачи
Автор: Снежана | Размер: 20.83 ГБ | Добавлен: 24 июл 2013
Раздают: 3    Качают: 2
Скачать торрент
Скачать торрент
Описание торрента

СообщениеДобавлено: 24 июл 2013 

#77

• Название: Орда

Год: 2012
Жанр: История
Страна: Россия
Режиссёр: Андрей Прошкин
Продолжительность: 02:09:26

В ролях:
Максим Суханов, Андрей Панин, Виталий Хаев, Александр Яценко, Петр Янданэ, Евгений Харитонов, Юрий Пронин, Роза Хайруллина, Виталий Гусев, Юнчен Жуан

Описание:
Орда. Веками это слово означало кровавые набеги и унизительную дань для многих стран и народов. Странный и страшный мир со своими законами и обычаями. В середине XIV века власть Орды простирается над большей частью Евразии. Платит дань восточному соседу и Московское княжество. Когда ханшу Тайдулу сражает тяжелый недуг, ни один целитель оказывается не силах ей помочь. Тогда в Орду вызывают «московского колдуна» митрополита Алексия. На карту поставлена судьба всего княжества. Однако и сам Алексий не знает, чем обернется его путешествие в Орду.

Премьера (Мир): 24 октября 2012
Премьера (РФ): 20 сентября 2012
Релиз на DVD / Blu-Ray: 18 октября 2012



Формат: MKV
Субтитры: Нет
Качество: BDRemux
Перевод: Не требуется

Видео: 1920х1080 (16:9), H264 - MPEG-4 AVC, 24fps, 18 493 kbps
Аудио 1: Russian: DTS, 1536 kb/s (6 ch)
Аудио 2: Russian: AC3, 640 kb/s (6 ch)

Video
ID : 1
Format : AVC
Format/Info : Advanced Video Codec
Format profile : High@L4.1
Format settings, CABAC : Yes
Format settings, ReFrames : 4 frames
Format settings, GOP : M=3, N=14
Codec ID : V_MPEG4/ISO/AVC
Duration : 2h 9mn
Bit rate mode : Variable
Bit rate : 20.4 Mbps
Maximum bit rate : 35.0 Mbps
Width : 1 920 pixels
Height : 1 080 pixels
Display aspect ratio : 16:9
Frame rate mode : Constant
Frame rate : 24.000 fps
Standard : NTSC
Color space : YUV
Chroma subsampling : 4:2:0
Bit depth : 8 bits
Scan type : Progressive
Bits/(Pixel*Frame) : 0.410
Stream size : 18.4 GiB (88%)
Language : Russian
Default : Yes
Forced : No
Color primaries : BT.709
Transfer characteristics : BT.709
Matrix coefficients : BT.709

Audio #1
ID : 2
Format : DTS
Format/Info : Digital Theater Systems
Format profile : MA / Core
Codec ID : A_DTS
Duration : 2h 9mn
Bit rate mode : Variable
Bit rate : 1 561 Kbps / 1 510 Kbps
Channel(s) : 6 channels
Channel positions : Front: L C R, Side: L R, LFE
Sampling rate : 48.0 KHz
Bit depth : 24 bits
Compression mode : Lossless / Lossy
Title : DTS-HD Master Audio 5.1 @ 48 kHz / 3866 kbps / 24-bit (DTS Core: 5.1 / 48 kHz / 1509 kbps / 24-bit)
Language : Russian
Default : Yes
Forced : No

Audio #2
ID : 3
Format : AC-3
Format/Info : Audio Coding 3
Mode extension : CM (complete main)
Format settings, Endianness : Big
Codec ID : A_AC3
Duration : 2h 9mn
Bit rate mode : Constant
Bit rate : 640 Kbps
Channel(s) : 6 channels
Channel positions : Front: L C R, Side: L R, LFE
Sampling rate : 48.0 KHz
Bit depth : 16 bits
Compression mode : Lossy
Stream size : 593 MiB (3%)
Title : DD 5.1 @ 640 kbps
Language : Russian
Default : No
Forced : No

Menu
00:00:00.000 : ru:
00:01:07.708 : ru:
00:01:18.708 : ru:
00:17:05.708 : ru:
00:32:55.708 : ru:
00:48:34.125 : ru:
01:03:39.000 : ru:
01:20:22.541 : ru:
01:34:06.666 : ru:
01:54:23.041 : ru:





   Похожие торренты   Торрент   Размер 
В этой теме нет новых непрочитанных сообщений. Орда (2012) BDRip-AVC by nnlabetik | Лицензия

29 | 4

3.12 ГБ

В этой теме нет новых непрочитанных сообщений. Орда (2012) BDRip от HQ-ViDEO | Лицензия

26 | 3

2.18 ГБ

В этой теме нет новых непрочитанных сообщений. Орда (2012) HDRip от Scarabey | Лицензия

60 | 5

2.17 ГБ

В этой теме нет новых непрочитанных сообщений. Орда (2012) BDRip от HQCLUB | Лицензия

123 | 10

2.18 ГБ

В этой теме нет новых непрочитанных сообщений. Орда (2012) HDRip от Scarabey | Лицензия

38 | 10

744.17 МБ

В этой теме нет новых непрочитанных сообщений. Орда (2012) BDRip-AVC от potroks | Лицензия

9 | 8

2.19 ГБ

В этой теме нет новых непрочитанных сообщений. Орда (2012) HDRip | КПК от Generalfilm | Лицензия

21 | 3

444.78 МБ




Вы не можете начинать темы
Вы не можете отвечать на сообщения
Вы не можете редактировать свои сообщения
Вы не можете удалять свои сообщения
Вы не можете добавлять вложения

Перейти:  
Для Мосгорсуда, Роскомнадзора и рекламодателей: mosgorsud-torrent[собачка]yandex.ru
 Вход
ppkBB3cker v.2 © 2008-2014 @ PPK
[ Time : 0.068s | 14 Queries | GZIP : Off ]

Торрент трекер RUTOR.IN, Не можете зайти на rutor.org? Какой новый адрес рутор? Какое зеркало рутор? Не работает rutor.org и зеркала? Тогда наш торрент специально для вас. Rutor.in неофициальное зеркало rutor. В случае если у Вас заблокирован rutor или вдруг Вы не можете на него зайти, то Вы без труда сможете скачать бесплатно и без рекламы последние новинки кино, игр, сериалов и прочего у нас, на Rutor.in. Не нужно использовать прокси, чтобы зайти на рутор, достаточно воспользоваться нашим ресурсом. Все новые фильмы, игры, сериалы, книги и музыка за 2013 и 2014 годы через торрент бесплатно. Скачивайте фильмы в хорошем качестве, игры для пк, xbox, playstation без регистрации. У нас вы найдете новые Зарубежные сериалы и Русские сериалы 2013, 2014, 2015 годов. Оставайтесь с нами, качайте любимые фильмы, игры, сериалы, книги и музыку.