img image001 image001 image001 image001 image001 image001 image001 image001 image001 image001 image001 image001 image001 image001 image001

Planets Sun Sun Sun
Статистика раздачи
Автор: Снежана | Размер: 2.18 ГБ | Добавлен: 24 июл 2013
Раздают: 1122    Качают: 62
Скачать торрент
Скачать торрент
Описание торрента

СообщениеДобавлено: 24 июл 2013 


Собачье сердце / Sobachye serdtse / Heart of a Dog (1988) BDRip
Релиз от HQ-ViDEO

Информация о фильме:
Оригинальное название: Собачье сердце
Год выхода: 1988
Жанр: Фантастика, Драма, Комедия
Режиссёр: Владимир Бортко
В ролях: Владимир Толоконников / Шариков, Евгений Евстигнеев / профессор Филипп Преображенский, Борис Плотников / доктор Борменталь, Роман Карцев / Швондер, Нина Русланова / Дарья Петровна, Ольга Мелихова / Зиночка, Алексей Миронов / Федор, Анжелика Неволина / Васнецова, Наталья Фоменко / Вяземская, Иван Ганжа / Жаровкин, Валентина Ковель / пациентка, Сергей Филиппов / пациент, Роман Ткачук / Николай Николаевич Персиков, Наталья Лапина, Юрий Оськин, Юрий Волков / член ЦК, Анатолий Сливников / пожарный, Юрий Эллер / любопытный перед домом Преображенского, Михаил Штейн, Евгений Иловайский / следователь, Нора Грякалова / мадмуазель Жанна, Борис Соколов / конферансье в цирке, Владимир Глазков / фотограф, Олег Летников, Сергей Бехтерев / медиум, Александр Белинский / пожилой бородатый участник спиритического сеанса, Александр Струнин, Михаил Кучеров, Олег Смолин, Виктор Колпаков, Юрий Кузнецов / дворник, Евгений Кузнецов, Владимир Бортко / зевака около дома профессора Преображенского, Владимир Федоров / существо
Сюжет фильма:
Профессор Преображенский ставит смелые опыты, пытаясь превратить собаку Шарика в равного себе во всем человека. В результате получается некто Шариков. К сожалению, опыт доказывает, что собаке лучше оставаться собакой.

Страна: СССР
Продолжительность: 1:07:36; 1:08:19
Перевод: Не требуется
Субтитры: Русские, Английские СПАСИБО vinalord
Информация о файле:
Качество: BDRip
Файл: AVI
Кодек: XviD, build 65 codec
Видео: 720 x 544, 4:3; 23.976 fps; ~ 1820-1855 kbps; 0.194-0.198 bit/pixel
Аудио : 48 kHz, AC3 Dolby Digital, 3/2 (L,C,R,l,r) + LFE ch, ~448.00 kbps avg
Размер: 1113.07 Mb ; 1118.13 Mb (2*1/4 )


General
Complete name : D:КИНОSobache.Serdtse.1988.RUS.BDRip.XviD.AC3.-HQ-ViDEOSobachye.Serdce.E02.1988.RUS.BDRip.XviD.AC3.-HQ-ViDEO.avi
Format : AVI
Format/Info : Audio Video Interleave
File size : 1.09 GiB
Duration : 1h 8mn
Overall bit rate : 2 277 Kbps
Writing application : VirtualDubModRus 1.5.10.2 (build 2542/release)
Writing library : VirtualDubMod build 2542/release
Video
ID : 0
Format : MPEG-4 Visual
Format profile : Advanced Simple@L5
Format settings, BVOP : 2
Format settings, QPel : No
Format settings, GMC : No warppoints
Format settings, Matrix : Custom
Codec ID : XVID
Codec ID/Hint : XviD
Duration : 1h 8mn
Bit rate : 1 820 Kbps
Width : 720 pixels
Height : 544 pixels
Display aspect ratio : 4:3
Frame rate : 23.976 fps
Color space : YUV
Chroma subsampling : 4:2:0
Bit depth : 8 bits
Scan type : Progressive
Compression mode : Lossy
Bits/(Pixel*Frame) : 0.194
Stream size : 890 MiB (80%)
Writing library : XviD 65
Audio
ID : 1
Format : AC-3
Format/Info : Audio Coding 3
Mode extension : CM (complete main)
Codec ID : 2000
Duration : 1h 8mn
Bit rate mode : Constant
Bit rate : 448 Kbps
Channel(s) : 6 channels
Channel positions : Front: L C R, Side: L R, LFE
Sampling rate : 48.0 KHz
Bit depth : 16 bits
Compression mode : Lossy
Stream size : 219 MiB (20%)
Alignment : Split accross interleaves
Interleave, duration : 42 ms (1.00 video frame)
Interleave, preload duration : 500 ms
На роль Шарикова было восемь претендентов.
На роль Швондера пробовался актер Семен Фарада.
Чтобы передать на экране колорит того времени, для имитации чёрно-белого изображения Владимир Бортко использовал для камеры фильтр «сепия».
К созданию фильма причастен бард Юлий Ким: частушки, исполняемые Шариковым, написаны им. Также ему принадлежит песня «Белая гвардия наголову разбита, а Красную армию никто не разобьёт!».
В фильме профессор Преображенский приглашает коллег для осмотра Шарикова. Один из них, профессор Персиков — это персонаж другой повести Булгакова «Роковые яйца». Pеплика начитанного дворника — это реплика персонажа из рассказа «Самоцветный быт». Прорицательница в цирке мадемуазель Жанна — персонаж рассказа «Мадмазель Жанна». История со «крестинами» младенцев Клары и Розы заимствована из фельетона «Золотые корреспонденции Ферапонта Ферапонтовича Капорцева», а сцена с медиумом — из рассказа «Спиритический сеанс».

Релиз:
Автор рипа: Overlord
Источник:
ПРИЯТНОГО ПРОСМОТРА!



   Похожие торренты   Торрент   Размер 
В этой теме нет новых непрочитанных сообщений. Собачье сердце (1988) BDRip 720p от HQ-ViDEO

423 | 37

5.75 ГБ

В этой теме нет новых непрочитанных сообщений. Собачье сердце (1988) BDRip-AVC | Реставрация

87 | 6

741.19 МБ

В этой теме нет новых непрочитанных сообщений. Собачье сердце (1988) BDRip от HQCLUB

143 | 9

2.18 ГБ

В этой теме нет новых непрочитанных сообщений. Собачье сердце (1988) BDRip-AVC | iPad

434 | 17

2.82 ГБ

В этой теме нет новых непрочитанных сообщений. Собачье сердце (1988) BDRip-AVC от potroks

29 | 5

2.18 ГБ

В этой теме нет новых непрочитанных сообщений. Собачье сердце (1988) BDRip от HELLYWOOD

462 | 24

2.18 ГБ

В этой теме нет новых непрочитанных сообщений. Собачье сердце (1988) BDRip 1080p от HDReactor

83 | 24

12.45 ГБ




Вы не можете начинать темы
Вы не можете отвечать на сообщения
Вы не можете редактировать свои сообщения
Вы не можете удалять свои сообщения
Вы не можете добавлять вложения

Перейти:  
Для Мосгорсуда, Роскомнадзора и рекламодателей: mosgorsud-torrent[собачка]yandex.ru
 Вход
ppkBB3cker v.2 © 2008-2014 @ PPK
[ Time : 0.027s | 14 Queries | GZIP : On ]

Торрент трекер RUTOR.IN, Не можете зайти на rutor.org? Какой новый адрес рутор? Какое зеркало рутор? Не работает rutor.org и зеркала? Тогда наш торрент специально для вас. Rutor.in неофициальное зеркало rutor. В случае если у Вас заблокирован rutor или вдруг Вы не можете на него зайти, то Вы без труда сможете скачать бесплатно и без рекламы последние новинки кино, игр, сериалов и прочего у нас, на Rutor.in. Не нужно использовать прокси, чтобы зайти на рутор, достаточно воспользоваться нашим ресурсом. Все новые фильмы, игры, сериалы, книги и музыка за 2013 и 2014 годы через торрент бесплатно. Скачивайте фильмы в хорошем качестве, игры для пк, xbox, playstation без регистрации. У нас вы найдете новые Зарубежные сериалы и Русские сериалы 2013, 2014, 2015 годов. Оставайтесь с нами, качайте любимые фильмы, игры, сериалы, книги и музыку.