img image001 image001 image001 image001 image001 image001 image001 image001 image001 image001 image001 image001 image001 image001 image001

Planets Sun Sun Sun
Статистика раздачи
Автор: Снежана | Размер: 1.45 ГБ | Добавлен: 24 июл 2013
Раздают: 90    Качают: 10
Скачать торрент
Скачать торрент
Описание торрента

СообщениеДобавлено: 24 июл 2013 


Царь Иван Грозный / Князь Серебряный
2 серии


Год выпуска: 1991
Жанр: драма
Продолжительность: 01:01:53 + 01:02:31
Режиссер: Геннадий Васильев
В ролях: Кахи Кавсадзе, Игорь Тальков, Лариса Шахворостова, Андрей Соколов, Станислав Любшин, Андрей Мартынов, Дмитрий Писаренко, Андрей Толубеев, Николай Крючков, Владимир Антоник, Евгений Шутов, Стефания Станюта, Валерий Гаркалин, Иван Рыжов, Валентина Титова...


Описание: Царствование Иоанна Грозного - это время славы, роскоши и жестокости, время, когда все понятия извращались, низость называлась добродетелью, а предательство входило в закон. Но даже тогда, среди мрака русской ночи, были люди, подобные князю Серебряному или боярину Морозову.


Качество видео: DVDRip
Формат видео: AVI
Видео: 640x496 (1.29:1), 25 fps, XviD build 65 ~1467 kbps avg, 0.18 bit/pixel
Аудио: 48 kHz, AC3 Dolby Digital, 2/0 (L,R) ch, ~192 kbps






Фильм снят по мотивам повести А.К.Толстого "Князь Серебряный".
Кахи Кавсадзе здесь сыграл две роли - Ивана Грозного и юродивого. Дублировал его роль Сергей Малишевский
Сценарий: Валентин Ежов, Геннадий Васильев
Композитор: Алексей Рыбников
Кинокомпания : Тискино
Страна : СССР

В ролях
Игорь Тальков — Князь Никита Серебряный
Лариса Шахворостова — Елена
Станислав Любшин — боярин Дружина Морозов
Кахи Кавсадзе — царь Иван Грозный, Василий Блаженный
Андрей Соколов — князь Афанасий Вяземский
Андрей Мартынов — Малюта Скуратов
Андрей Толубеев — Борис Годунов
Валерий Гаркалин — Васька Грязной
Дмитрий Писаренко — Фёдор Басманов
Евгений Шутов — Михеич
Иван Рыжов — Мельник-колдун
Николай Крючков — Коршун
Владимир Антоник — Иван Перстень
Зоя Буряк — Паша, холопка
Стефания Станюта — Ануфриевна
Валентина Титова — Настоятельница монастыря
Сергей Бирюлин — стремянный
Леонид Филаткин — Палач
Ольга Дроздова — Анастасия, девушка на смотринах
Николай Сморчков — стрелец
Александр Грунда


Интересные факты
- Первоначальное название картины — «Князь Серебряный» — было изменено из-за конфликта Игоря Талькова с продюсером фильма Исмаилом Таги-Заде и последовавшей после этого череды скандалов
- Изначально режиссёром картины предполагался Алексей Салтыков
- На роль Вяземского пробовался брат Игоря Талькова Владимир

Код:
Complete name                    : Car`.Ivan.Groznyi.(1991).DVDRip.XviD_Olu6kaCar`.Ivan.Groznyi_01.seriya.iz.02.avi
Format                           : AVI
Format/Info                      : Audio Video Interleave
File size                        : 737 MiB
Duration                         : 1h 1mn
Overall bit rate                 : 1 666 Kbps
Movie name                       : Car`.Ivan.Groznyi_01.seriya.iz.02
Writing application              : FairUse Wizard
Writing library                  : The best and REALLY easy backup tool
Video
ID                               : 0
Format                           : MPEG-4 Visual
Format profile                   : Advanced Simple@L5
Format settings, BVOP            : Yes
Format settings, QPel            : No
Format settings, GMC             : No warppoints
Format settings, Matrix          : Custom
Codec ID                         : XVID
Codec ID/Hint                    : XviD
Duration                         : 1h 1mn
Bit rate                         : 1 464 Kbps
Width                            : 640 pixels
Height                           : 496 pixels
Display aspect ratio             : 1.290
Frame rate                       : 25.000 fps
Color space                      : YUV
Chroma subsampling               : 4:2:0
Bit depth                        : 8 bits
Scan type                        : Progressive
Bits/(Pixel*Frame)               : 0.184
Stream size                      : 648 MiB (88%)
Writing library                  : XviD 65
Audio
ID                               : 1
Format                           : AC-3
Format/Info                      : Audio Coding 3
Mode extension                   : CM (complete main)
Codec ID                         : 2000
Duration                         : 1h 1mn
Bit rate mode                    : Constant
Bit rate                         : 192 Kbps
Channel(s)                       : 2 channels
Channel positions                : Front: L R
Sampling rate                    : 48.0 KHz
Bit depth                        : 16 bits
Stream size                      : 85.0 MiB (12%)
Alignment                        : Split accross interleaves
Interleave, duration             : 40 ms (1.00 video frame)
Interleave, preload duration     : 500 ms

Релиз от:



   Похожие торренты   Торрент   Размер 
В этой теме нет новых непрочитанных сообщений. Царь Иван Грозный (1991) DVDRip

89 | 11

2.17 ГБ

В этой теме нет новых непрочитанных сообщений. История русских царей. Царь Иван Грозный (2000) DVDRip

56 | 4

243.08 МБ

В этой теме нет новых непрочитанных сообщений. Иван Грозный (2009) DVDRip

395 | 152

8.58 ГБ

В этой теме нет новых непрочитанных сообщений. Иван Грозный (1944-1945) DVDRip

385 | 24

2.85 ГБ

В этой теме нет новых непрочитанных сообщений. Иван Грозный (1944) DVDRip от New-Team

15 | 11

1.46 ГБ

В этой теме нет новых непрочитанных сообщений. Иван Грозный (1944) DVDRip-AVC от New-Team

89 | 11

2.18 ГБ

В этой теме нет новых непрочитанных сообщений. Иван Грозный (1944) DVDRip от New-Team

45 | 3

2.18 ГБ




Вы не можете начинать темы
Вы не можете отвечать на сообщения
Вы не можете редактировать свои сообщения
Вы не можете удалять свои сообщения
Вы не можете добавлять вложения

Перейти:  
Для Мосгорсуда, Роскомнадзора и рекламодателей: mosgorsud-torrent[собачка]yandex.ru
 Вход
ppkBB3cker v.2 © 2008-2014 @ PPK
[ Time : 0.079s | 15 Queries | GZIP : Off ]

Торрент трекер RUTOR.IN, Не можете зайти на rutor.org? Какой новый адрес рутор? Какое зеркало рутор? Не работает rutor.org и зеркала? Тогда наш торрент специально для вас. Rutor.in неофициальное зеркало rutor. В случае если у Вас заблокирован rutor или вдруг Вы не можете на него зайти, то Вы без труда сможете скачать бесплатно и без рекламы последние новинки кино, игр, сериалов и прочего у нас, на Rutor.in. Не нужно использовать прокси, чтобы зайти на рутор, достаточно воспользоваться нашим ресурсом. Все новые фильмы, игры, сериалы, книги и музыка за 2013 и 2014 годы через торрент бесплатно. Скачивайте фильмы в хорошем качестве, игры для пк, xbox, playstation без регистрации. У нас вы найдете новые Зарубежные сериалы и Русские сериалы 2013, 2014, 2015 годов. Оставайтесь с нами, качайте любимые фильмы, игры, сериалы, книги и музыку.
cron