img image001 image001 image001 image001 image001 image001 image001 image001 image001 image001 image001 image001 image001 image001 image001

Planets Sun Sun Sun
Статистика раздачи
Автор: Снежана | Размер: 1.46 ГБ | Добавлен: 24 июл 2013
Раздают: 5    Качают: 4
Скачать торрент
Скачать торрент
Описание торрента

СообщениеДобавлено: 24 июл 2013 

#77
Год выпуска: 2004
Страна: Россия
Студия: Ментор Синема
Жанр: драма
Продолжительность: 01:53:45

Перевод: не требуется
Субтитры: нет
Оригинальная аудиодорожка: русский

Режиссер: Иван Соловов

В ролях: Марат Башаров, Сергей Газаров, Алексей Гуськов, Амалия Мордвинова, Дарья Повереннова, Вера Сотникова, Елена Захарова, Анастасия Сиваева, Юрий Яковлев, Виталий Баев...

Описание: Два незадачливых приятеля-музыканта перебиваются случайными заработками, попадая при этом во множество забавных ситуаций. Однажды они знакомятся с очаровательной женщиной, оказавшейся к тому же известным музыкальным продюсером.
Один из друзей безоглядно влюбляется в нее… С этого момента новоиспеченные звезды погружаются в пучину, именуемую «российским шоу-бизнесом» со всеми его страстями и интригами.





Исходник: DVD5 R5
Качество: DVDRip
Формат: AVI

Видео: 720x416 (1.731:1), 25.000 fps, XviD MPEG-4 ~1632 kbps avg, 0.218 bit/pixel
Аудио: 48 kHz, Dolby АС3, 2 ch, 192.00 kbps Constant
Изображение: цветное

Раздача от:

Общее
Полное имя : Slova.i.muzyka.2004.O.DVDRip_[Youtracker]_by_avproh.avi
Формат : AVI
Формат/Информация : Audio Video Interleave
Размер файла : 1,46 Гбайт
Продолжительность : 1 ч. 53 м.
Общий поток : 1834 Кбит/сек
Программа кодирования : VirtualDubMod 1.5.10.3 | www.virtualdub-fr.org || (build 2550/release)
Библиотека кодирования : VirtualDubMod build 2550/release

Видео
Идентификатор : 0
Формат : MPEG-4 Visual
Профиль формата : Advanced Simple@L5
Параметр BVOP формата : 1
Параметр QPel формата : Нет
Параметр GMC формата : Без точки перехода
Параметр матрицы формата : Выборочная
Идентификатор кодека : XVID
Идентификатор кодека/Подсказка : XviD
Продолжительность : 1 ч. 53 м.
Битрейт : 1632 Кбит/сек
Ширина : 720 пикселей
Высота : 416 пикселей
Соотношение сторон : 1,731
Частота кадров : 25,000 кадров/сек
Цветовое пространство : YUV
Субдискретизация насыщенности : 4:2:0
Битовая глубина : 8 бит
Тип развёртки : Прогрессивная
Метод сжатия : С потерями
Бит/(Пиксели*Кадры) : 0.218
Размер потока : 1,30 Гбайт (89%)
Библиотека кодирования : XviD 65

Аудио
Идентификатор : 1
Формат : AC-3
Формат/Информация : Audio Coding 3
Расширение режима : CM (complete main)
Параметр Endianness формата : Big
Идентификатор кодека : 2000
Продолжительность : 1 ч. 53 м.
Вид битрейта : Постоянный
Битрейт : 192 Кбит/сек
Каналы : 2 канала
Расположение каналов : Front: L R
Частота : 48,0 КГц
Битовая глубина : 16 бит
Метод сжатия : С потерями
Размер потока : 156 Мбайт (10%)
Выравнивание : Разделение по промежуткам
Продолжительность промежутка : 40 мс. (1,00 видеокадр)
Время предзагрузки промежутка : 500 мс.





   Похожие торренты   Торрент   Размер 
В этой теме нет новых непрочитанных сообщений. Слова и музыка (2004) DVD5 R5 от Youtracker

0 | 12

4.22 ГБ

В этой теме нет новых непрочитанных сообщений. Слова / The Words (2012) BDRip от Youtracker | D | EXTENDED | Лицензия

56 | 5

744.76 МБ

В этой теме нет новых непрочитанных сообщений. Слова / The Words (2012) BDRip 1080p от Youtracker | Лицензия | Theatrical

35 | 5

12.22 ГБ

В этой теме нет новых непрочитанных сообщений. Слова / The Words (2012) BDRip от Youtracker | Лицензия | Extended Edition

319 | 8

1.42 ГБ

В этой теме нет новых непрочитанных сообщений. Апокриф. Музыка для Петра и Павла (2004) DVDRip от Киномагия

1 | 2

2.54 ГБ

В этой теме нет новых непрочитанных сообщений. Жидкая музыка. Глубокий дрейф духа / Liquid Music. Deep Spirit Drift (2004) DVDRip - Zona-X

0 | 2

703.23 МБ

В этой теме нет новых непрочитанных сообщений. Красота природы: Музыка тишины [2005, документальный, видеорелакс, музыка, DVDRip]

0 | 16

653.33 МБ




Вы не можете начинать темы
Вы не можете отвечать на сообщения
Вы не можете редактировать свои сообщения
Вы не можете удалять свои сообщения
Вы не можете добавлять вложения

Перейти:  
Для Мосгорсуда, Роскомнадзора и рекламодателей: mosgorsud-torrent[собачка]yandex.ru
 Вход
ppkBB3cker v.2 © 2008-2014 @ PPK
[ Time : 0.039s | 15 Queries | GZIP : Off ]

cron