img image001 image001 image001 image001 image001 image001 image001 image001 image001 image001 image001 image001 image001 image001 image001

Planets Sun Sun Sun
Статистика раздачи
Автор: Снежана | Размер: 1.59 ГБ | Добавлен: 24 июл 2013
Раздают: 1    Качают: 5
Скачать торрент
Скачать торрент
Описание торрента

СообщениеДобавлено: 24 июл 2013 

Не убивайте меня, пожалуйста!

Информация о фильме
Название: Не убивайте меня, пожалуйста!
Год выхода: 2005
Жанр: Драма

Режиссер: Оксана Сенникова

В ролях: Светлана Павлова, Александр Бакшаев, Оксана Овчинникова, Андрей Ефимов, Наталья Раба, Павел Раба, Маргарита Лошкова, Сергей Захарченко, Агрита Васильева, Руслан Васильев, Анжела Греченкова, Светлана Подобина, Сергей Подобин, Юрий Ладошкин, Татьяна Ефимова, Анатолий Целиков, Елена Панкратова, Ольга Свионтковская, Светлана Журуева, Татьяна Матюнина, Нина Павлова, Тимофей Сенников

О фильме:
Убить человека - что это? Многие замашут руками и начнут проклинать терроризм. Но практически никто даже словом не обмолвится о миллионах детей, которых убивают самыми изощрёнными методами, только потому, что они лишние, нежеланные, нелюбимые, случайные. И убивают их собственные матери и отцы, которые должны любить и защищать.
Убить человека, что это? Это прийти в медицинское учреждение, где за стенкой счастливые матери рожают своих долгожданных детей, и разрешить убийце в белом халате разрывать твоего ребенка на кусочки или сжигать его кислотой, а потом спокойно идти и кушать больничный обед.
Так всё таки, что же это - убить человека?
Фильм снят с участием глухих актёров. Фильм тронет самое каменное сердце и сохранит жизнь тысячам детей, которых хотят убить их мамы..... .


Страна: Россия
Продолжительность: 02:13:45

Файл
Формат: AVI
Качество: DVDRip
Видео: 720x544 (1.32:1), 25 fps, DivX Codec 5.2.1 build 1338 ~1341 kbps avg, 0.14 bit/pixel
Аудио: 44.100 kHz, Microsoft ADPCM, 2 ch, ~354.87 kbps avg

Код:
Общее
Полное имя                               : D:/Фильмы/Ne.ubivajte.menya.pozhalujsta.2005.DivX.DVDRip.avi
Формат                                   : AVI
Формат/Информация                        : Audio Video Interleave
Размер файла                             : 1,59 Гбайт
Продолжительность                        : 2 ч. 13 м.
Общий поток                              : 1706 Кбит/сек
Библиотека кодирования                   : VirtualDub build 13720/release

Видео
Идентификатор                            : 0
Формат                                   : MPEG-4 Visual
Параметр BVOP формата                    : Нет
Параметр QPel формата                    : Нет
Параметр GMC формата                     : Без точки перехода
Параметр матрицы формата                 : Default (H.263)
Идентификатор кодека                     : DX50
Идентификатор кодека/Подсказка           : DivX 5
Продолжительность                        : 2 ч. 13 м.
Битрейт                                  : 1342 Кбит/сек
Ширина                                   : 720 пикселей
Высота                                   : 544 пикселя
Соотношение сторон                       : 4:3
Частота кадров                           : 25,000 кадров/сек
Цветовое пространство                    : YUV
Субдискретизация насыщенности            : 4:2:0
Битовая глубина                          : 8 бит
Тип развёртки                            : Прогрессивная
Метод сжатия                             : С потерями
Бит/(Пиксели*Кадры)                      : 0.137
Размер потока                            : 1,25 Гбайт (79%)
Библиотека кодирования                   : DivX 5.2.1 (DrDivX 106) (UTC 2004-09-08)

Аудио
Идентификатор                            : 1
Формат                                   : ADPCM
Идентификатор кодека                     : 2
Продолжительность                        : 2 ч. 13 м.
Продолжительность оригинала              : 2 ч. 13 м.
Вид битрейта                             : Постоянный
Битрейт                                  : 352,8 Кбит/сек
Каналы                                   : 2 канала
Частота                                  : 44,1 КГц
Битовая глубина                          : 4 бит
Размер потока                            : 340 Мбайт (21%)
Продолжительность промежутка             : 46  мс. (1,15 видеокадр)
Время предзагрузки промежутка            : 461  мс.





   Похожие торренты   Торрент   Размер 
В этой теме нет новых непрочитанных сообщений. Bad Boys Blue - 1985-2005 Video Collection (2005) DVDRip-AVC от BT-Club

17 | 5

1004.98 МБ

В этой теме нет новых непрочитанных сообщений. Bad Boys Blue ‎– 1985-2005 Video Collection (2005) DVDRip-AVC

14 | 0

817.44 МБ

В этой теме нет новых непрочитанных сообщений. Моральный кодекс - МХАТ 30 июня 2005 (2005) DVDRip от Киномагия

2 | 3

1.37 ГБ

В этой теме нет новых непрочитанных сообщений. Bad Boys Blue ‎– 1985-2005 Video Collection (2005) DVDRip-AVC

2 | 0

807.39 МБ

В этой теме нет новых непрочитанных сообщений. Китайская одиссея / Chinese Odyssey (1994-2002) DVDRip + Китaйская истoрия / A Chinеse Tall Stоry (2005) DVDRip

4 | 5

4.51 ГБ

В этой теме нет новых непрочитанных сообщений. Вау-вау / Wah-Wah (2005) DVDRip | P2

34 | 8

1.37 ГБ

В этой теме нет новых непрочитанных сообщений. Буу! / Boo (2005) DVDRip | P

10 | 0

1.37 ГБ




Вы не можете начинать темы
Вы не можете отвечать на сообщения
Вы не можете редактировать свои сообщения
Вы не можете удалять свои сообщения
Вы не можете добавлять вложения

Перейти:  
Для Мосгорсуда, Роскомнадзора и рекламодателей: mosgorsud-torrent[собачка]yandex.ru
 Вход
ppkBB3cker v.2 © 2008-2014 @ PPK
[ Time : 0.038s | 15 Queries | GZIP : Off ]

cron