img image001 image001 image001 image001 image001 image001 image001 image001 image001 image001 image001 image001 image001 image001 image001

Planets Sun Sun Sun
Статистика раздачи
Автор: Снежана | Размер: 1.46 ГБ | Добавлен: 24 июл 2013
Раздают: 28    Качают: 6
Скачать торрент
Скачать торрент
Описание торрента

СообщениеДобавлено: 24 июл 2013 

#77
СКОРОСТЬ


Жанр: спортивная драма
Год выпуска: 1983
Продолжительность: 01:27:36

Режиссёр: Дмитрий Светозаров

В ролях: Дмитрий Харатьян, Алексей Баталов, Мерле Тальвик-Каппель, Всеволод Шиловский, Ангелина Степанова, Баадур Цуладзе, Николай Фоменко, Андрей Гусев, Анатолий Сливников, Елена Андерегг, Геннадий Богачёв, Ольга Викландт, Ирина Коваленко, Вера Липсток, Никита Джигурда, Николай Ващилин

Описание: Широкоформатный фильм по одноименной повести В.Мусаханова.
Эта история началась с того дня, когда на соревнованиях гоночных автомобилей никому не известный автолюбитель Григорий Яковлев на собранной им самим автомашине опередил именитых спортсменов. Его машина понравилась руководителю конструкторского бюро, который пригласил молодого автогонщика в свою лабораторию...





Качество видео: SATRip
Формат видео: AVI

Видео: 688x320 (2.15:1), 25 fps, XviD build 65 ~2179 kbps avg, 0.40 bit/pixel
Аудио: 48 kHz, AC3 Dolby Digital, 2/0 (L,R) ch, ~192 kbps






Код:
Complete name                    : Skorost.1983.SATRip.XviD_Olu6ka.avi
Format                           : AVI
Format/Info                      : Audio Video Interleave
File size                        : 1.46 GiB
Duration                         : 1h 27mn
Overall bit rate                 : 2 381 Kbps
Movie name                       : Skorost.1983
Writing application              : VirtualDubMod 1.5.10.3

Video
ID                               : 0
Format                           : MPEG-4 Visual
Format profile                   : Advanced Simple@L5
Format settings, BVOP            : Yes
Format settings, QPel            : No
Format settings, GMC             : No warppoints
Format settings, Matrix          : Custom
Codec ID                         : XVID
Codec ID/Hint                    : XviD
Duration                         : 1h 27mn
Bit rate                         : 2 180 Kbps
Width                            : 688 pixels
Height                           : 320 pixels
Display aspect ratio             : 2.2:1
Frame rate                       : 25.000 fps
Color space                      : YUV
Chroma subsampling               : 4:2:0
Bit depth                        : 8 bits
Scan type                        : Progressive
Bits/(Pixel*Frame)               : 0.396
Stream size                      : 1.33 GiB (92%)
Writing library                  : XviD 65

Audio
ID                               : 1
Format                           : AC-3
Format/Info                      : Audio Coding 3
Mode extension                   : CM (complete main)
Codec ID                         : 2000
Duration                         : 1h 27mn
Bit rate mode                    : Constant
Bit rate                         : 192 Kbps
Channel(s)                       : 2 channels
Channel positions                : Front: L R
Sampling rate                    : 48.0 KHz
Bit depth                        : 16 bits
Stream size                      : 120 MiB (8%)
Alignment                        : Split accross interleaves
Interleave, duration             : 40 ms (1.00 video frame)
Interleave, preload duration     : 500 ms


Релиз от:



   Похожие торренты   Торрент   Размер 
В этой теме нет новых непрочитанных сообщений. Скорость (1983) SATRip от nTrey

28 | 11

743.34 МБ

В этой теме нет новых непрочитанных сообщений. Как я был вундеркиндом (1983) SATRip от Youtracker

4 | 4

1.46 ГБ

В этой теме нет новых непрочитанных сообщений. Шел четвертый год войны... (1983) DVDRip-AVC от Youtracker

17 | 5

1.46 ГБ

В этой теме нет новых непрочитанных сообщений. Шел четвертый год войны... (1983) DVDRip от Youtracker

315 | 13

744.5 МБ

В этой теме нет новых непрочитанных сообщений. Шел четвертый год войны... (1983) DVDRip от Youtracker

19 | 6

1.46 ГБ

В этой теме нет новых непрочитанных сообщений. Кристина / Christine (1983) BDRip от Youtracker

4 | 3

2.77 ГБ

В этой теме нет новых непрочитанных сообщений. Я тебя никогда не забуду (1983) TVRip от Youtracker

8 | 5

741.05 МБ




Вы не можете начинать темы
Вы не можете отвечать на сообщения
Вы не можете редактировать свои сообщения
Вы не можете удалять свои сообщения
Вы не можете добавлять вложения

Перейти:  
Для Мосгорсуда, Роскомнадзора и рекламодателей: mosgorsud-torrent[собачка]yandex.ru
 Вход
ppkBB3cker v.2 © 2008-2014 @ PPK
[ Time : 0.060s | 17 Queries | GZIP : Off ]

Торрент трекер RUTOR.IN, Не можете зайти на rutor.org? Какой новый адрес рутор? Какое зеркало рутор? Не работает rutor.org и зеркала? Тогда наш торрент специально для вас. Rutor.in неофициальное зеркало rutor. В случае если у Вас заблокирован rutor или вдруг Вы не можете на него зайти, то Вы без труда сможете скачать бесплатно и без рекламы последние новинки кино, игр, сериалов и прочего у нас, на Rutor.in. Не нужно использовать прокси, чтобы зайти на рутор, достаточно воспользоваться нашим ресурсом. Все новые фильмы, игры, сериалы, книги и музыка за 2013 и 2014 годы через торрент бесплатно. Скачивайте фильмы в хорошем качестве, игры для пк, xbox, playstation без регистрации. У нас вы найдете новые Зарубежные сериалы и Русские сериалы 2013, 2014, 2015 годов. Оставайтесь с нами, качайте любимые фильмы, игры, сериалы, книги и музыку.