img image001 image001 image001 image001 image001 image001 image001 image001 image001 image001 image001 image001 image001 image001 image001

Planets Sun Sun Sun
Статистика раздачи
Автор: Снежана | Размер: 1.42 ГБ | Добавлен: 24 июл 2013
Раздают: 119    Качают: 13
Скачать торрент
Скачать торрент
Описание торрента

СообщениеДобавлено: 24 июл 2013 

#77

Год выпуска: 1968
Страна: CCCР
Студия: Одесская киностудия

Перевод: Не требуется
Жанр: боевик, приключения, военный
Продолжительность: 01:16:22

Режиссер: Леон Кочарян

В ролях: А.Солоницын, А.Свидерский, А.Фадеев, Х.Швейц, В.Маренков, О.Халимонов, Ж.Прохоренко, Н.Гринько, А.Толбузин, Г.Тонунц, Н.Крюков, Г.Шпигель, О.Савосин, Л.Поляков, В.Акуратерс, В.Лапин, Ю.Прокопович

Описание: В 1942 году отряд разведчиков-десантников, действуя в тылу врага, прорывается из немецкого кольца. Возглавляемые капитаном Мигунько, бойцы добираются до шоссе, где захватывают легковую машину с Двигубским, агентом вражеской разведки. Капитан решает с его помощью проникнуть в разведывательный центр фашистов и ликвидировать его…





Исходник: DVD5 R5
Качество: DVDRip
Формат: AVI

Видео: 688x368 (1.85:1), 25.000 fps, XviD MPEG-4 ~2390 kbps avg, 0.378 bit/pixel
Аудио: 48 kHz, Dolby AC3, 2 ch, 256.00 kbps Constant
Раздача от:
Общее
Полное имя : Odin.shans.iz.tysyachi.1968.O.DVDRip_[Youtracker]_by_avproh.avi
Формат : AVI
Формат/Информация : Audio Video Interleave
Размер файла : 1,42 Гбайт
Продолжительность : 1 ч. 16 м.
Общий поток : 2655 Кбит/сек
Программа кодирования : VirtualDubMod 1.5.10.3 | www.virtualdub-fr.org || (build 2550/release)
Библиотека кодирования : VirtualDubMod build 2550/release

Видео
Идентификатор : 0
Формат : MPEG-4 Visual
Профиль формата : Advanced Simple@L5
Параметр BVOP формата : 1
Параметр QPel формата : Нет
Параметр GMC формата : Без точки перехода
Параметр матрицы формата : Выборочная
Идентификатор кодека : XVID
Идентификатор кодека/Подсказка : XviD
Продолжительность : 1 ч. 16 м.
Битрейт : 2390 Кбит/сек
Ширина : 688 пикселей
Высота : 368 пикселей
Соотношение сторон : 1,85:1
Частота кадров : 25,000 кадров/сек
Цветовое пространство : YUV
Субдискретизация насыщенности : 4:2:0
Битовая глубина : 8 бит
Тип развёртки : Прогрессивная
Метод сжатия : С потерями
Бит/(Пиксели*Кадры) : 0.378
Размер потока : 1,27 Гбайт (90%)
Библиотека кодирования : XviD 65

Аудио
Идентификатор : 1
Формат : AC-3
Формат/Информация : Audio Coding 3
Расширение режима : CM (complete main)
Параметр Endianness формата : Big
Идентификатор кодека : 2000
Продолжительность : 1 ч. 16 м.
Вид битрейта : Постоянный
Битрейт : 256 Кбит/сек
Каналы : 2 канала
Расположение каналов : Front: L R
Частота : 48,0 КГц
Битовая глубина : 16 бит
Метод сжатия : С потерями
Размер потока : 140 Мбайт (10%)
Выравнивание : Разделение по промежуткам
Продолжительность промежутка : 40 мс. (1,00 видеокадр)
Время предзагрузки промежутка : 500 мс.





   Похожие торренты   Торрент   Размер 
В этой теме нет новых непрочитанных сообщений. Один шанс из тысячи (1968) DVD5 от Youtracker | лицензия

21 | 92

3.27 ГБ

В этой теме нет новых непрочитанных сообщений. Один шанс из тысячи (1968) DVDRip

310 | 6

700.39 МБ

В этой теме нет новых непрочитанных сообщений. Еще один мужчина, еще один шанс / Un autre homme, une autre chance (1977) DVDRip

31 | 6

2.04 ГБ

В этой теме нет новых непрочитанных сообщений. Еще один шанс [01-04 из 04] (2009) DVDRip

54 | 5

1.56 ГБ

В этой теме нет новых непрочитанных сообщений. Один шанс на двоих / Une chance sur deux (1998) DVDRip

92 | 8

1.45 ГБ

В этой теме нет новых непрочитанных сообщений. Ещё один шанс [01-04 из 04] (2009) SATRip от КинозалSAT

35 | 6

1.95 ГБ

В этой теме нет новых непрочитанных сообщений. Один шанс на двоих / 1 chance sur 2 (1998) BDRip-AVC | A

85 | 15

2.19 ГБ




Вы не можете начинать темы
Вы не можете отвечать на сообщения
Вы не можете редактировать свои сообщения
Вы не можете удалять свои сообщения
Вы не можете добавлять вложения

Перейти:  
Для Мосгорсуда, Роскомнадзора и рекламодателей: mosgorsud-torrent[собачка]yandex.ru
cron
 Вход
ppkBB3cker v.2 © 2008-2014 @ PPK
[ Time : 0.036s | 14 Queries | GZIP : Off ]

Торрент трекер RUTOR.IN, Не можете зайти на rutor.org? Какой новый адрес рутор? Какое зеркало рутор? Не работает rutor.org и зеркала? Тогда наш торрент специально для вас. Rutor.in неофициальное зеркало rutor. В случае если у Вас заблокирован rutor или вдруг Вы не можете на него зайти, то Вы без труда сможете скачать бесплатно и без рекламы последние новинки кино, игр, сериалов и прочего у нас, на Rutor.in. Не нужно использовать прокси, чтобы зайти на рутор, достаточно воспользоваться нашим ресурсом. Все новые фильмы, игры, сериалы, книги и музыка за 2013 и 2014 годы через торрент бесплатно. Скачивайте фильмы в хорошем качестве, игры для пк, xbox, playstation без регистрации. У нас вы найдете новые Зарубежные сериалы и Русские сериалы 2013, 2014, 2015 годов. Оставайтесь с нами, качайте любимые фильмы, игры, сериалы, книги и музыку.