img image001 image001 image001 image001 image001 image001 image001 image001 image001 image001 image001 image001 image001 image001 image001

Planets Sun Sun Sun
Статистика раздачи
Автор: Снежана | Размер: 2.19 ГБ | Добавлен: 24 июл 2013
Раздают: 59    Качают: 14
Скачать торрент
Скачать торрент
Описание торрента

СообщениеДобавлено: 24 июл 2013 

Первое правило королевы
По одноименному роману Татьяны Устиновой (4 серии из 4-х)

#77

Жанр: детектив
Год выпуска: 2006
Продолжительность: 02:54:36

Режиссер: Вячеслав Криштофович

В ролях: Юлия Высоцкая, Сергей Власов, Александр Галибин, Леонид Неведомский, Николай Иванов (III), Алексей Маклаков, Ксения Николаева, Дарина Лобода, Михаил Гуро

Описание:
Инна Селиверстова, руководитель информационного управления Белоярского края, — «царица Савская, Клеопатра, стерва и зараза», как называли ее недруги и противники, — впервые растерялась. Убит губернатор края Мухин. Потом кто-то застрелил и его вдову, причем Инна находилась в это время в другой комнате...



Качество видео: DVDRip
Формат видео: AVI
Видео: 688x384 (1.79:1), 25 fps, XviD build 65 ~1597 kbps avg, 0.24 bit/pixel
Аудио: 48 kHz, AC3 Dolby Digital, 2/0 (L,R) ch, ~192 kbps




ЧАСТЬ 1 - 00:43:12
Видео: 688x384 (1.79:1), 25 fps, XviD build 65 ~1689 kbps avg, 0.26 bit/pixel





ЧАСТЬ 2 - 00:43:18
Видео: 688x384 (1.79:1), 25 fps, XviD build 65 ~1596 kbps avg, 0.24 bit/pixel





ЧАСТЬ 3 - 00:43:17
Видео: 688x384 (1.79:1), 25 fps, XviD build 65 ~1556 kbps avg, 0.23 bit/pixel





ЧАСТЬ 4 - 00:45:12
Видео: 688x384 (1.79:1), 25 fps, XviD build 65 ~1521 kbps avg, 0.23 bit/pixel




Код:
Complete name                    : Pervoe.Pravilo.Korolevy.(01.seriya.iz.04).2006.XviD.DVDRip_Olu6ka.avi
Format                           : AVI
Format/Info                      : Audio Video Interleave
File size                        : 584 MiB
Duration                         : 43mn 12s
Overall bit rate                 : 1 891 Kbps
Movie name                       : Pervoe.pravilo.korolevi.(1.serija.iz.4).2006.XviD.DVDRip
Writing application              : FairUse Wizard

Video
ID                               : 0
Format                           : MPEG-4 Visual
Format profile                   : Advanced Simple@L5
Format settings, BVOP            : Yes
Format settings, QPel            : No
Format settings, GMC             : No warppoints
Format settings, Matrix          : Custom
Codec ID                         : XVID
Codec ID/Hint                    : XviD
Duration                         : 43mn 12s
Bit rate                         : 1 689 Kbps
Width                            : 688 pixels
Height                           : 384 pixels
Display aspect ratio             : 16:9
Frame rate                       : 25.000 fps
Color space                      : YUV
Chroma subsampling               : 4:2:0
Bit depth                        : 8 bits
Scan type                        : Progressive
Bits/(Pixel*Frame)               : 0.256
Stream size                      : 522 MiB (89%)
Writing library                  : XviD 65

Audio
ID                               : 1
Format                           : AC-3
Format/Info                      : Audio Coding 3
Mode extension                   : CM (complete main)
Codec ID                         : 2000
Duration                         : 43mn 12s
Bit rate mode                    : Constant
Bit rate                         : 192 Kbps
Channel(s)                       : 2 channels
Channel positions                : Front: L R
Sampling rate                    : 48.0 KHz
Bit depth                        : 16 bits
Stream size                      : 59.3 MiB (10%)
Alignment                        : Split accross interleaves
Interleave, duration             : 40 ms (1.00 video frame)
Interleave, preload duration     : 500 ms


Релиз от:



   Похожие торренты   Торрент   Размер 
В этой теме нет новых непрочитанных сообщений. Первое правило королевы (01-04 из 04) (2006) DVDRip от MediaClub | КПК

330 | 17

809.38 МБ

В этой теме нет новых непрочитанных сообщений. Первое правило королевы (2006) DVD9

9 | 3

6.88 ГБ

В этой теме нет новых непрочитанных сообщений. Терри Гудкайнд - Десятое правило волшебника или Фантом / Phantom (2006) (2015) MP3

108 | 26

1.53 ГБ

В этой теме нет новых непрочитанных сообщений. Правило №1 / Rule Number One (2008) DVDRip

0 | 2

700.81 МБ

В этой теме нет новых непрочитанных сообщений. Правило №1: Шеф всегда прав / Boss'n Up (2005) DVDRip от Киномагия | P

5 | 3

1.37 ГБ

В этой теме нет новых непрочитанных сообщений. Цветы для снежной королевы [2 серии из 2] (2006) SATRip от КинозалSAT

6 | 4

1.37 ГБ

В этой теме нет новых непрочитанных сообщений. Первое свидание (1960) DVDRip от Kino@rena

76 | 7

1.37 ГБ




Вы не можете начинать темы
Вы не можете отвечать на сообщения
Вы не можете редактировать свои сообщения
Вы не можете удалять свои сообщения
Вы не можете добавлять вложения

Перейти:  
Для Мосгорсуда, Роскомнадзора и рекламодателей: mosgorsud-torrent[собачка]yandex.ru
 Вход
ppkBB3cker v.2 © 2008-2014 @ PPK
[ Time : 3.404s | 17 Queries | GZIP : Off ]

Торрент трекер RUTOR.IN, Не можете зайти на rutor.org? Какой новый адрес рутор? Какое зеркало рутор? Не работает rutor.org и зеркала? Тогда наш торрент специально для вас. Rutor.in неофициальное зеркало rutor. В случае если у Вас заблокирован rutor или вдруг Вы не можете на него зайти, то Вы без труда сможете скачать бесплатно и без рекламы последние новинки кино, игр, сериалов и прочего у нас, на Rutor.in. Не нужно использовать прокси, чтобы зайти на рутор, достаточно воспользоваться нашим ресурсом. Все новые фильмы, игры, сериалы, книги и музыка за 2013 и 2014 годы через торрент бесплатно. Скачивайте фильмы в хорошем качестве, игры для пк, xbox, playstation без регистрации. У нас вы найдете новые Зарубежные сериалы и Русские сериалы 2013, 2014, 2015 годов. Оставайтесь с нами, качайте любимые фильмы, игры, сериалы, книги и музыку.