img image001 image001 image001 image001 image001 image001 image001 image001 image001 image001 image001 image001 image001 image001 image001

Planets Sun Sun Sun
Статистика раздачи
Автор: Снежана | Размер: 2 ГБ | Добавлен: 24 июл 2013
Раздают: 1    Качают: 9
Скачать торрент
Скачать торрент
Описание торрента

СообщениеДобавлено: 24 июл 2013 



Информация о фильме
Название: Дамы и гусары
Год выхода: 1976
Жанр: комедия
Режиссер: Анатолий Ниточкин, Александра Ремизова
В ролях: Юрий Яковлев, Владимир Осенев, Юрий Волынцев, Алексей Кузнецов, Екатерина Райкина, Алла Казанская, Лариса Пашкова, Людмила Целиковская, Владимир Шлезингер, Александр Граве, Анатолий Борисов, Нина Нехлопоченко, Инна Алабина, Агнесса Петерсон

О фильме:
Экранизация одноимённого спектакля по пьесе А.Фредро.
К закоренелым холостякам, счастливо "соединяющим усилия" за чашей вина, - лихим гусарам, панам майору, ротмистру, поручику Эдмунду и капеллану приезжают сестры пана майора, решившие женить приближающегося к 60-летию братца на племяннице. Но племянница уже давно любит Эдмунда, и тогда созревает план уговорить майора жениться, в последний момент подменив его на поручика. Для этого дамами были сплетены самые коварные интриги, в результате которых все остальные вояки тоже задумали жениться и чуть было не преуспели в этом намерении!



Страна: СССР
Студия: ТО "Экран"
Продолжительность: 02:15:13 - 2 серии
Перевод: не требуется

Файл
Кодек: XviD
Качество: DVDRip
Видео: AVI, Битрейт 1918 Кбит/сек, 640 : 480, 4:3, 25,000 кадров/сек
Звук: AC-3, Битрейт 192 Кбит/сек, 2 канала, Front: L R, 48,0 КГц
Субтитры: нет

Формат : AVI
Формат/Информация : Audio Video Interleave
Профиль формата : OpenDML
Размер файла : 2,00 Гбайт
Продолжительность : 2 ч. 15 м.
Общий поток : 2123 Кбит/сек
Программа кодирования : VirtualDubMod 1.5.10.3 | www.virtualdub-fr.org || (build 2550/release)
Библиотека кодирования : VirtualDubMod build 2550/release

Видео
Идентификатор : 0
Формат : MPEG-4 Visual
Профиль формата : Advanced Simple@L5
Параметр BVOP формата : 1
Параметр QPel формата : Нет
Параметр GMC формата : Без точки перехода
Параметр матрицы формата : Default (MPEG)
Идентификатор кодека : DX50
Идентификатор кодека/Подсказка : DivX 5
Продолжительность : 2 ч. 15 м.
Битрейт : 1918 Кбит/сек
Ширина : 640 пикселей
Высота : 480 пикселей
Соотношение сторон : 4:3
Частота кадров : 25,000 кадров/сек
Цветовое пространство : YUV
Субдискретизация насыщенности : 4:2:0
Битовая глубина : 8 бит
Тип развёртки : Прогрессивная
Метод сжатия : С потерями
Бит/(Пиксели*Кадры) : 0.250
Размер потока : 1,81 Гбайт (90%)
Библиотека кодирования : XviD 1.2.1 (UTC 2008-12-04)

Аудио
Идентификатор : 1
Формат : AC-3
Формат/Информация : Audio Coding 3
Расширение режима : CM (complete main)
Параметр Endianness формата : Big
Идентификатор кодека : 2000
Продолжительность : 2 ч. 15 м.
Вид битрейта : Постоянный
Битрейт : 192 Кбит/сек
Каналы : 2 канала
Расположение каналов : Front: L R
Частота : 48,0 КГц
Битовая глубина : 16 бит
Метод сжатия : С потерями
Размер потока : 186 Мбайт (9%)
Выравнивание : Разделение по промежуткам
Продолжительность промежутка : 40 мс. (1,00 видеокадр)
Время предзагрузки промежутка : 500 мс.



   Похожие торренты   Торрент   Размер 
В этой теме нет новых непрочитанных сообщений. Легенда о Тиле (1976) DVDRip-AVC от старпёра

2 | 4

4.66 ГБ

В этой теме нет новых непрочитанных сообщений. В мире людей. Небесные гусары (2011) SATRip от torrentfilm

99 | 19

498.96 МБ

В этой теме нет новых непрочитанных сообщений. Дамы в лиловом / Ladies in Lavender. (2004) DVDRip

60 | 4

1.46 ГБ

В этой теме нет новых непрочитанных сообщений. Дамы приглашают кавалеров (1981) DVDRip-AVC от New-Team

77 | 18

1.46 ГБ

В этой теме нет новых непрочитанных сообщений. Дамы в лиловом / Ladies in Lavender. (2004) DVDRip

2 | 1

745.02 МБ

В этой теме нет новых непрочитанных сообщений. Дамы приглашают кавалеров (1981) DVDRip от New-Team

449 | 35

1.46 ГБ

В этой теме нет новых непрочитанных сообщений. Дамы приглашают кавалеров (1981) DVDRip от New-Team

15 | 12

744.75 МБ




Вы не можете начинать темы
Вы не можете отвечать на сообщения
Вы не можете редактировать свои сообщения
Вы не можете удалять свои сообщения
Вы не можете добавлять вложения

Перейти:  
Для Мосгорсуда, Роскомнадзора и рекламодателей: mosgorsud-torrent[собачка]yandex.ru
 Вход
ppkBB3cker v.2 © 2008-2014 @ PPK
[ Time : 0.048s | 15 Queries | GZIP : On ]

Торрент трекер RUTOR.IN, Не можете зайти на rutor.org? Какой новый адрес рутор? Какое зеркало рутор? Не работает rutor.org и зеркала? Тогда наш торрент специально для вас. Rutor.in неофициальное зеркало rutor. В случае если у Вас заблокирован rutor или вдруг Вы не можете на него зайти, то Вы без труда сможете скачать бесплатно и без рекламы последние новинки кино, игр, сериалов и прочего у нас, на Rutor.in. Не нужно использовать прокси, чтобы зайти на рутор, достаточно воспользоваться нашим ресурсом. Все новые фильмы, игры, сериалы, книги и музыка за 2013 и 2014 годы через торрент бесплатно. Скачивайте фильмы в хорошем качестве, игры для пк, xbox, playstation без регистрации. У нас вы найдете новые Зарубежные сериалы и Русские сериалы 2013, 2014, 2015 годов. Оставайтесь с нами, качайте любимые фильмы, игры, сериалы, книги и музыку.